&title=Lazy Addiction
&artist=sky_delta
&first=0.02
&des=Tane
&lv_5=13+
&inote_5=(185){1},
{4},,,,
{4},,,1h[8:1],
{4}1b>7[4:5],,,,
{8},8,8,8,
8h[8:1],,8-4[8:1],,
{8},,3h[8:1],4h[8:1],
5h[8:1],6h[8:1],1>6[4:3],,
{4},,7h[8:1],7-3[8:1],
{8},,2,2,
2,2h[8:1],
{16},,2,2,
{16}2,,2,,
,,2,,
1-5[8:1],,,,
,,,,
{16}47,,6,5,
6,,47,,
52,,3,4,
3,,25,,
{16}36,,5,4,
5,,36,,
45,,36,,
27,,,,
{4}1pp5[4:3],,7,,
{8}8V64[4:2],2,2,2,
2-6[8:1],,,,
{4}8qq3[4:5],,4,,
{4}3,,2,,
{8}8V64[4:2],,3,3,
2,2,{16},,3,4,
{8}2,2-5[8:1],,7,
7-4[8:1],,,,
{4}1bV35[4:6]*V75[4:6],,,,
{4},,,,
{8}4/5h[8:3],,2,4h[8:2],
7,5h[8:2],,
{8}1,,3-6[8:1],3,
3,,6,6,
{8}6,7,8/7h[16:19],,
{16}8,,8h[8:1],,
,8h[8:1],,,
{8}8,,{16}1h[8:1],,,1,
,,1,8,
1,,27,,
{8},2,2,3,3,
4,5,{16}6,,7,8,
7,,
7,,
{8}6,6,5,4,
{16}3,,2,,
2,4,2,4,
{16}3,,6,,
7,5,7,5,
6,,3,,
2,4,3,,
{16}7,5,6,,
2,8,4,6,
3,5,1,,
1pp6[4:3],,,,
{8},7h[8:3],,,
{16},,,,
7,,6,5,
{16}6,,4,,
3-7[8:1],4,2h[4:1],,
,,,,
{16}1>5[4:1],,,,
5^2[8:1],,,,
8,7,6,,
2,,,,
{16}3,4,3h[8:1],,
4,,7,,
6,5,6,,
2,,,,
{16}8q4[4:1],,,,
4<8[2:1],,,,
1h[8:1],,,1h[8:1],
,,1,,
{16}2,,1h[8:1],,
,1h[8:1],,,
1w5[8:1],,,,
1,,,,
{16}8<4[4:1],,,,
4^7[8:1],,,,
1,2,3,,
7,,,,
{16}3,4,3,,
5,6,7,8,
4,3,2,1,
8,,,,
{16}1p5[4:1],,,,
5p1[4:1],,,,
8,7,6,,
,,,,
{16}2h[8:1]/4,,,,
4h[8:1]/6,,,,
6h[8:1]/8w4[8:1],,,,
8,,,,
{16}8h[8:1]/2>6[4:1],,,,
6v1[8:1],,,,
8,7,6,,
2,,,,
{16}2,,6,5,
6,,7,,
3,4,3,,
2,,,,
{16}1p5[4:1],,,,
5>1[2:1],,,,
8h[8:1],,,8h[8:1],
,,8,,
{16}7,,8h[8:1],,
,8,,,
8,,,,
8,1,8,,
{16}1h[8:1]/7<3[4:1],,,,
3v8[8:1],,,,
1,2,3,,
7,,,,
{16}6,,5,,
4,3,2,1,
5,6,7,8,
3,,,,
{16}4,,4,,
5,,5,,
4,5,4,5,
3,,7,,
{16}16,,7,8,7
,,16,,
2,1,2,,
38,,,,
{16}1-3[8:1],,,,
7V15[4:1],,,,
5-1[8:1],,,,
2>7[4:2],,,,
{16},,8,,
8,,8,,
8-4[8:1],,,,
,,,,
{16}1h[4:1],,,,
6h[8:1],,5h[8:1],,
4h[8:1],,2h[8:1],,
8<3[8:5],,,,
{16},,,,
,,,,
1-5[8:1],,,,
1,,,,
{16}8V64[4:2],,,,
3,,3,,
2,,2,,
,,2pp5[4:2],,
{16}8,,8,,
8,,8,,
8-4[8:1],,,,
,,,,
{16}1h[4:1],,,,
7h[8:1],,5h[8:1],,
3h[8:1],,1,,
8,,78,,
{16},,1,,
2,,12,,
8,1,8,,
27,,27,,
{16}18,,2,4,
2,,6,5,
6,,47,,
25,,3,4,
{16}3,,2/5<1[4:1],,
2,,2,,
2-6[8:1],,,,
,,,,
{16}8h[4:1],,,,
3h[8:1],,4h[8:1],,
5h[8:1],,7h[8:1],,
1>6[4:2],,,,
{16},,,,
,,,,
8-4[8:1],,,,
8,,,,
{16}1V35[4:2],,,,
6,,6,,
7,,7,,
,,7qq4[4:2],,
{16}1,,1,,
1,,1,,
1-5[8:1],,,,
,,,,
{16}8b-6[8:1],,,,
,,2b-6[8:1],,
,,,,
4bV62[2:1],,,,
{16},,,,
,,,,
,,,,
,,,,
{16}1pp4[4:6],,,,
,,,,
,,,,
,,,,
{16},,,,
,,,,
,,,,
,,,,
{16}5pp8[4:6],,,,
,,,,
,,,,
,,,,
{16},,,,
,,,,
,,,,
,,,,
{16}3pp1[4:6],,,,
,,,,
,,,,
,,,,
{16},,,,
,,,,
,,,,
,,,,
{16}7pp5[4:6],,,,
,,,,
,,,,
,,,,
{16},,,,
,,,,
,,,,
,,,,
{16}46,,,,
,,37,,
,,,,
28,,,,
{16},,1,,
1,,1,,
1-5[8:1],,,,
1,,,,
{16}56,,,,
,,45,,
,,,,
34,,,,
{16},,25,,
,,,,
1,,,,
1,,,,
{16}53,,,,
,,35,,
,,,,
26,,,,
{16},,17,,
,,,,
8-4[8:1],,,,
8,,,,
{16},,,,
,,,,
,,,,
,,,,
{16},,,,
,,,,
,,,,
,,,,
{16}4b-1[4:5]/5b-8[4:5],,,,
,,,,
,,,,
,,,,
{16},,,,
,,,,
,,,,
8-4[8:1],,,,
{16}8h[4:4],,,,
,,,,
,,,,
,,,,
{16},,8,,
8,,8,,
8,1,8,,
8,,8,,
{16}7,,7,,
6,,6,,
5,,4,,
3,,2,1,
{16}2,,2,,
3,,3,,
4,,5,,
6,,7,,
{16}7,8,7,8,
6,,4,,
2,1,
2,1,
3,,5,,
{16}1,8,1,8,
2,7,2,7,
3,6,4,5,
3,6,2,,
{16}2-6[8:1],,,,
,,8-4[8:1],,
,,,,
6-2[8:1],,,,
{16}8,,,,
1,,2,4,
3,,7,,
7,5,6,,
{16}2,,2,4,
3,,7,5,
6,,2,,
2,,2,4,
{16}3,,3,,
6,,6,5,
7,,3,4,
2,,6,5,
{16}7,,6,,
{16}4h[16:1],,4,,
3-7[8:1],,3,,
2h[8:1],,,,
2,,,,
{16}5h[16:1],,5,,
6-2[8:1],,6,,
7h[8:1],,,,
7,5,6,,
{16}2,4,3,,
4,,5,,
6,,,,
7b-3[8:1],,,,
{16},,1b-5[8:1],,
,,,,
3b-7[8:1],,,,
,,5b-1[8:1],,
{16},,,,
7h[4:1],,,,
,,,,
2,4,3,,
{16}7,5,6,,
6,,6,5,
8,,8,,
8,5,6,,
{16}3,,3,4,
1,,8,,
7,,,,
6-1[8:1],,,,
{16}1,,2-5[8:1],,
,,7-4[8:1],,
,,8,,
,,1-5[8:1],,
{16}8,,1,,
,,7,,
6,,5,,
47,,,,
{16},,7,,
4,,5,,
3,,4,,
2^5[8:1]/5,,
,,6,,
{16}6,,7,,
7,,1,7,
3,5,4,,
4,,3,,
{16}3,,2,,
2,,1,,
1,5,3,6,
3,6,4,5,
{16}3,,2,,
1,,8-4[8:1],8,
8,8,8,,
,,
{16}2,1,2,1,
5,6,5,6,
47,,,,
7,8,7,8,
{16}4,3,4,,
3/8-4[8:1],,,,
18,,,,
2b-5[8:1],,,,
{16}5,,6b-1[8:1],,
,,4,,
3b^8[8:1],,,,
8,7,6,5,
{16}8,1,2,3,
6,5,4,3,
2,1,8,7,
46,,46,,
{16}35,,24,,
35,,46,,
57,,6,5,
6,,75,,
{16}64,,53,,
42,,31,,
{24}2,1,8,7,6,5,
4/8z4[8:3],,,,,,
{16},,2-7[8:1],,
,,,,
5h[8:3],,,,
,,,,
{16},,,,
1/8,,8/1-5[8:1],,
,,,,
8b,,,,
{16},,,,
,,,,
,,,,
,,,,
{16},,,,
,,,,
,,,,
,,,,
{16},,,,
,,,,
,,,,
,,,,
