&title=二者穿一
&artist=六花
&first=0
&des=MYOU
&lv_5=12+
&inote_5=(200)
{1},
{8}1-3[8:1]/4-1[8:1],14,,,,,5-8[8:1]/8-6[8:1],58,
{8},,1<2[8:3],,,,,,
{8}7h[4:1],,,6/4h[4:1],,,3/4pp4[8:3],,
{8},,1,,2,,37,,
{8}4h[4:1]/6h[4:1],,,5h[4:1]/7h[4:1],,,6/8qq8[8:3],,
{8},,4,,3,,15,,
{8}2h[4:1],,,3/5h[4:1],,,6/5qq5[8:3],,
{8},8,,7,7,,26,,
{8}5h[4:1]/3h[4:1],,,4h[4:1]/2h[4:1],,,3/1pp5[8:4],,
{8},5,,6,6,,48,,
{8}7h[4:1],,,6/5h[4:1],,,3/4pp8[8:4],,
{8},,1,,2,,37,,
{8}4h[4:1]/6h[4:1],,,5h[4:1]/7h[4:1],,,6/8<4[4:1],,
{8},3,2,2,4,4,5,5,
{8}7b-4[8:1],,,2b-7[8:1],,,5b-2[8:1],,
{8},1b-5[8:1],,,8,7,6h[4:1],,
{8}3,2h[4:1]/4,,1h[4:1],,,2h[4:1]/8h[4:1],,
{8},37,3<1[8:3]/7,,,,,,
{8}6,,56,,4,45,,3h[8:7]/4,
{8},,2,,1,,8,,
{8}37,,5,45,,56,,6/7h[4:1],
{8},5,4,3,6,5,4,3,
{8}7,,17,,8,18,,1/2h[8:7],
{8},,3,,4,,5,,
{8}26,,54,54,,65,,7h[4:1]/6,
{8},5,4,3,6,5,4,3,
{4}6/2-4[8:1],6,6/3-5[8:1],6,
{4}3/7-5[8:1],3,3/6-4[8:1],3,
{4}6/2>4[8:1],6,6/3<5[8:1],6,
{4}3/7<5[8:1],2,6/1>3[8:1],6,
{4}4/7>1[8:1],4,8/5>3[8:1],8,
{4}6v7[8:1],2,3v2[8:1],6,
{8}5,5,46,,4,35,,5/7h[4:1],
{8},8,1,2,7,8,1,2,
{4}3>6[2:1]/5,,4,4p6[8:3],
{4},5,5p1[16:3],,
{4}6<3[2:1],,5,5q3[8:3],
{4},4,4q8[16:3],,
{8}3h[4:1],,,2h[4:1]/4h[4:1],,,1h[4:1]/5-8[4:1],,
{8},,2,,13,,84,,
{8}75,7,5,5,4,4,2,2>8[2:1]/8<2[2:1],
{1},
{8}1bpp1[8:3],,,5bpp5[8:3],,,,,
{8}2bq3[8:3],,,6bq7[8:3],,,,,
{8}1h[4:1],,,7h[4:1]/3h[4:1],,,35,,
{1}2V48[8:3]/3V58[8:3],
{4}1-6[8:1]/6,7,8/5-2[8:1],7,
{4}6-1[8:1]/1,2,3/8-4[8:1],2,
{4}3-8[8:1]/5,7,6-2[8:1]/7,1,
{8}83,8,5,6,3,4,1,1,
{8}8bqq8[8:3]/2,,,4bqq4[8:3],,,1,,
{8}7bp6[8:3],,,3bp2[8:3],,,5,,
{4}4<7[8:1],2,3/1-6[8:1],4,
{4}5>2[8:1]/7,6,5/8-3[8:1],7,
{4}6/4-1[8:1],7,3-6[8:1]/5,7,
{4}3/5-8[8:1],2,6-3[8:1]/4,1-4[8:1]*-6[8:1],
{4}1,7v4[8:1]/3v8[8:1],73,5h[4:1]/1,
{8}2,3,54,6,7,2,54,6,
{4}3/7-5[8:1],87,1-7[8:1],12,
{4}3-1[8:1],34,5-3[8:1],56,
{4}7-4[8:1],78,1-6[8:1],12,
{4}3-8[8:1],34,5-2[8:1],56,
{4}7-1[8:1],67,5-7[8:1],45,
{4}3-6[8:1],23,1-4[8:1],81,
{4}7-3[8:1],67,5-1[8:1],45,
{8}2,3,54,6,7,2,54,6,
{8}2bs6[8:3]/7,,,5bV37[8:3],,,8,,
{8}1bs5[8:3],,,5bV73[8:3],,,8,,
{4}1-5[8:1],18,4-1[8:1]/6-4[8:1],46,
{4}8-4[8:1],81,5-8[8:1]/3-5[8:1],35,
{4}1-5[8:1],1/7-5[8:1],7/3-1[8:1],3/4-8[8:1],
{4}4/2-6[8:1],2/7,5-8[8:1]*-2[8:1],5,
{8}1,2,35,6,8,2,46,7,
{8}1,6,45,3,1,7,45,2,
{4}17,1/7<1[2:1],,8,
{4}8p2[8:3],,1h[4:1],,
{8}82,,8/2>8[2:1],,,1,,1p1[8:3],
{4},,4,17,
{8}24,2,4,4,5,5,7,7,
{1}7<1[2:1]/1>7[2:1],
{8}8h[4:1],,5,6/4h[4:1],,5,3/4pp3[8:3],,
{8},,1,,2,,37,,
{8}5h[4:1]/6,,7,6/7h[4:1],,8,7qq8[8:3]/8,,
{8},,3,,2,,14,,
{8}2h[4:1],,4,3/5h[4:1],,4,7/5qq6[8:3],,
{8},8,,7,7,,26,,
{8}4V61[4:1]/3,,3,2,,2,3pp7[8:4]/8,,
{8},7,,8,8,,5>2[8:1]/1,,
{8}8V25[4:1],,3,4h[4:1],,6,7/5qq1[8:4],,
{8},,8,,7,,26,,
{8}4h[4:1]/5,,7,6/7h[4:1],,1,1/8<4[4:1],,
{8},3,2,2,4,4,5,5,
{8}7bp3[8:1],,,2bp6[8:1],,,5b-2[8:1],,
{8},1b-5[8:1],,,8,7,6h[4:1],....,
{8}3,2/4<7[8:1],,1>4[8:1]/4,,18,7h[4:1],,
{8}3,26,5<4[8:3]/1h[16:13],,,,,,
{16},{24}7,8-4[24:81],1-5[24:80]*-5[24:80],{16}2,{4},,,
