&title=キバナリュウゲ
&artist=黄泉路テヂーモ
&first=-0.12
&des=Nicht punkten
&lv_5=13
&inote_5=(145)
||Entshuldigen
Sie
für
ein
anderes
Konto!
Ich
habe
sich
kritisierte
und
ich
das
Musikstück
komponierte
zu
meine
Entshuldigung
zeigen.
{1},
{8}1,1>6[16:5]/7,,,
{8},1>6[16:5],,,
{8},1>6[16:5],,,
{16},,8,8,,1/7,,,
{8}8,8<3[16:5]/2,,,
{8},8<3[16:5],,,
{8},8<3[16:5],,,
{16},,1,1,,8/1h[16:3],,,7,7,
{16}1,,3,4,,6,5,,
{16}7,8,,7/8h[8:1],,6,5,4,
{16}2,,3,4,,6,5,6,
{16}4,4,6,3h[16:3],4,5,6b,,
{16}1b/8b,,3,3,5,4,6,,
{16}1b/8b,,2,2,5,4,6,,
{16}1b/8b,,2,2,5,4,7,,
{16}1b/8b,18,,27,,,
{16}4,5,{8}3b/6b<5[1:1],,,,,,,
{1},
{8},6h[2:1],,,,5h[16:3],,5,
{8}4h[16:10]/5h[16:10],,,,,,,,
{8},3h[2:1],,,,{16}1h[16:2],,,1,,8h[16:11],
{4}1h[8:5],,,{16},8,1,7,
{8}2,2b/7bq3[8:1],,3,4,5h[8:1],{16}7p3[8:1],6,7,,
{16}7h[4:1],,,,5h[16:3],,,6h[16:3],,,4v5[16:3],,,6,,6,
{16}7,8,1<6[8:1],,,2,,,3,,46,,3,5,2,5,
{16}1,2bV47[8:3]/6bV83[8:3],,,,,,,,,,,,,,,
{16},,3/5h[8:1],,1,,4,6,1,,3/5h[8:1],,1,,4,6,1,8,
{16}4h[8:1],,8,,5,3,8,,6,6,8,8,7,1,6,2,
{16}3b/5h[8:1],,1,,6,4,8,,3/5h[8:1],,1,,6,4,8,1,
{16}4h[8:1],,2,,3,4,1,8,5,46,,4/6h[8:1],,{32}8,,
{32}7,,1,2,{4}3b-7[8:4],,,{8},
{8}6b-3[8:3]/8b-3[8:3],,,,,,,{16}2,4,
{16}3,5,2h[4:1]/6b,,,,4,2,1h[4:1]/5b,,,,3,,1,,
{16}5bV74[8:2]/1bV38[8:2],,,,1b/5b,,,,,,51,62,3/7h[8:1],,{32}1,2,3,4,5,6,7,8,
{4}1b-4[1:1]/5,5,,5,,6,
{16}6,5,7,,3,4,2,,
{4}4-1[1:1]/2,7,,7,,8,
{16}1,8,2,8,1,{24}8,7,6,
{16}5,2,,,2q5[8:3]/5,,,,,,7,,,7,,6,,
{16}47,6,5,4/7h[16:3],,,,,25,3,4,2-6[16:1]/5,1,8b,,,
{16}7,,6,57,,4,35,5,46,,3,3,5,5,7,7,
{16}1b>6[16:5],,,,,,,,1<3[32:11],,,,,,,,
{16}1>7[16:6],,,,,,,,1w5[16:2],,,,,,,,
{16}1b/7h[8:1],,5,6,3,4,1,,1/7h[8:1],,5,6,3,4,1,,
{16}1/7h[8:1],,5,6,3,4,1h[8:1],,8-4[8:1],1,,1,8,2,2,,
{16}8/2h[8:1],,4,3,6,5,8,,8/2h[8:1],,4,3,6,5,8,,
{16}8/2h[8:1],,4,3,6,5,8h[8:1],,1,8,,27,8,8,{32}1,2,3,4,
{16}5/7h[8:1],,5,6,3,4,1,,1/7h[8:1],,5,6,3,4,1,,
{16}1/7h[8:1],,5,6,3,4,1h[8:1],,4<7[8:1],3,,3,4,2,2,,
{16}8/2h[8:1],,4,3,6,5,8,1,8/2h[8:1],,4,3,6,5,{24}8,1,8,
{16}2h[8:1],,4,3,6,5,7,8,1b/7b,,4,3b/5b,,8,1b/7b,,
{16}1b-3[8:1],,5,,1-4[8:1],6,6,,1-3[8:1],,5,,1-4[8:1],6,6,,
{16}1-3[8:1],,5,,1,6,6,,1,8,27,1,8-6[8:1],7,2,2,
{16}8b-5[8:1],,4,3,8-6[8:1],2,2,,8b-4[8:1],,3,2,8-6[8:1],1,1,,
{16}8b-3[8:1],,2,1,8,1,1,,8b/1b,18,,27,1,8,1,1,
{16}1b>6[16:14],,,,,,,,,,,,,,,7h[16:25],
{16},,,,,,,,,,,,,,,,
{16},,,,,,,,,,,,,,,,
{16}5h[8:1]/7h[8:1],,,4h[8:1]/8h[8:1],,,13,3,4h[8:1]/2h[8:1],,,5h[8:1]/1h[8:1],,,86,6,
{16}5h[8:1]/7h[8:1],,,4h[8:1]/8h[8:1],,,13,3,4h[8:1]/2h[8:1],,,51,8,8,7,7,
{16}8h[8:1]/6h[8:1],,,1h[8:1]/5h[8:1],,,42,2,1h[8:1]/3h[8:1],,,8h[8:1]/4h[8:1],,,57,7,
{16}8h[8:1]/6h[8:1],,,1h[8:1]/5h[8:1],,,42,2,7,1,5,1,7,3,7,7,
{16}8h[8:1]/6h[8:1],,,1h[8:1]/7h[8:1],,,28,2,1h[8:1]/3h[8:1],,,8h[8:1]/2h[8:1],,,71,6,
{16}5h[8:1]/7h[8:1],,,4h[8:1]/6h[8:1],,,35,3,4h[8:1]/2h[8:1],,,5h[8:1]/3h[8:1],,,64,6,
{16}5,,2b,4,2b,,5,5,2b,2b,4,4,2b,5,4,5,
{16}3h[8:1],,1,,4,6,1,,5,3,1,3h[8:1],,1,3,7,
{16}3h[8:1],,8,,3,5,8,,6,8,7,1,5,3,7,1,
{16}2b/6h[8:1],,8,,5,3,8,,4,6,8,6h[8:1],,1,8,1,
{16}27,,{24}1,8,1,8,1,8,1,8,1,{16}2b/8b,,,1b/6b,,,3b/7b,6,
{16}5b/2b,,1,7,5,6,3,,25,,1,7,5,6,3,4,
{16}2,6,5,7,2,1,3,6,56,,78,,12,,34,34,
{16}2h[8:1]/5,,{24}8,7,6,3h[8:1],,,7,6,5,{16}2,,78,78,,16,,
{32}2b/5,3,4,,,,2b/6,3,4,,,,2b/7,3,4,,,,2b/8,3,4,,,,
{32}2b/1,3,4,,,,2b/8,3,4,,,,2b/7,3,4,,,,6/4b,3,2,,,,
{32}5/4b,3,2,,,,4b/6,3,28,,,,7,,,6,,,
{16}3,5,4,5,2,6,4,6,{24}3,2,1,8,7,6,2,1,8,{16}7<4[8:1],,
{16},,4,3,2,1,5,5,{24}1,2,3,4,5,6,2,3,4,5,6,7,
{16}3h[8:1]/8,,1b,,4,6,8,,5,3,1,1,3h[4:1],1,8,7,
{16}6h[8:1],,8,,5,3,1,,4,8,2,6,3,7,1,5,
{16}3h[8:1],,8,,3,5,1,,5,3,1,1,3h[4:1],1,8,7,
{16}6h[8:1],,{24}8,1,2,3b/5b,,,8,1,2,{16}3b/5b,,,4b/7b,,,2b/6b,,
{16}1b/7h[8:1],,5,6,3,4,1,8,1b/7h[8:1],,5,6,3,4,1>6[1:2],8,1h[1:3]/7b,,
{1},,,,,E
