&title=木洩陽の季節
&artist=Lamp
&first=0.146
&des=DOGMAID
&lv_5=13+
&inote_5=(108)
{2},{16}64,,7,,3,5,2,,
{8}3/4-6[12:1],,1,3-7[8:1],,6-4[12:1],6,,
{16}2,,34,,5,,5,3,,3,4,,26,,3,,
{8}6/5-3[12:1],,8,6-2[8:1],,3-5[12:1],3,,
{16}7,,56,,3,,3,5,,5,3,,26,,7,,
{8}5/8qq1[4:1],,2,2-6[8:1],,3,3-5[12:1],,
{16}6,,,,6,5,,{8}74,51,83,26,{16},
{8}4b/8h[4:1],,5,4h[4:1]/2b,,8,7b/5b<3[24:13]*qq4[8:5],,
{4},,,3>6[24:11]/4pp3[16:13],,,,6pp2[2:1],
{2},{8}3-5[12:1],,
{16}6,,,7h[16:3],,,6h[16:5],,5,,,5,4h[8:1],,,4h[16:5],
{8},6,5pp7[8:1],5,4>1[8:1],,5pp4[4:1],5,
{16}1,,,2h[16:3],,,3h[16:5],,4,,,4,5h[8:1],,,5h[16:5],
{8},6,4-2[12:1],3,5-1[8:1],6,4v2[8:1],3,
{16}7-5[12:1],,,8,,,2,,1/4pp3[24:5],,,,2,,,,
{8}8h[8:1],6,5/1v2[8:1],7,8q4[8:1],,7<5[12:1],8,
{8}1V74[8:3],,2,2,,1,{16}1h[16:3],,,4,
{16}3h[8:1],,7,4,6,3,5,1h[16:3],,,{24}4,2,5,{8}3-5[12:1],2,
{16}3/6<1[8:1],,7,7,,,2,,4/3pp5[8:1],,,2,,,8,,
{16}5/6<1[8:1],,,8,,,2,,4/3pp5[8:1],,,8,,,2,,
{16}4/3>8[8:1],,,1,,,7,,5/6qq4[8:1],,,1,1V75[48:7],,,2pp1[16:3],
{16},,,,,,6,,18,,7,5,,,46,,
{8}3/4-6[12:1],,1,3-7[8:1],,8<5[8:1],1,,
{16}3,,2,,13,,4,3,,3,5,,26,,3,,
{8}6/5-3[12:1],,8,6-2[8:1],,1>4[8:1],8,5,
{8}6<1[8:1],7,3<6[8:1],2,8>3[8:1],1,8b/7b-5[12:1],,
{8}2-6[8:1],1,7-5[12:1],8,2-6[8:1],8,5-3[12:1],7,
{8}8s4[24:5],,5,5,,14,{16}3,4,2,,
{8}8b/5b-3[12:1],,2-6[8:1],8,5-3[12:1],7,2-6[8:1],8,
{2}5p3[4:1],2qq6[4:1],
{8}1b-5[8:1],,4-6[12:1],3,7-3[8:1],1,4-6[12:1],2,
{2}8q1[4:1],3pp6[4:1],
{8}8<5[8:1],,1v4[8:1],2,5<8[8:1]*>2[8:1],6,5,,
{16}1,4,3,,57,,3,,8,5,6,5,1,3,4,,
{16}2b/6b<1[8:1],,,8,6,,2,,3/4qq5[24:5],,,8,,,7,,
{16}6<1[8:1],,,8,8,,2,,{4}3/4qq5[24:5],5q1[8:1],
{16}8q4[8:1],,,,7h[4:1],,,,5bqq5[16:3],,,1,1,,7,,
{16}6b<1[8:1],,,8,,,3,,{4}5bqq4[8:1],{8}4b,7,
{16}1b<6[8:1],,,7,1,,5,,4/5qq6[24:5],,,7,,,8,,
{16}1<6[8:1],,,7,7,,5,,{4}4/5qq6[24:5],7,
{16}1bp4[8:1],,,2,,,1,,8b<5[8:1],,,1,2>5[8:1],,,,
{8}8qq7[8:1],,1,2,3h[16:3],{16},8,5,6,5,,
{8}4/8p3[8:1],,2q6[8:1],1,{16}2,,7,,68,,,,
{8}1q6[8:1],5,7p3[8:1],,8,{16}1,2h[16:3],,,1h[8:1],,
{16}7,,6,,6,5,,,8h[8:1],,4,5,1,1,4,3,
{16}4,,25,,3,4,,,1h[8:1],,5,4,8,5,6,,
{16}48,,3,,5,4,5,2pp3[8:1]/6pp7[8:1],{2},
{16}5b/1h[16:3],,,4,3,,5h[16:2]/7b,,1,4,7,,2b/4bv5[8:3],,,,
{8}2,2,1,1,{16}8,6,5,,
{16}7b/3b>8[8:1],,4,4,1,,7,,6/5pp4[24:5],,3,,1,,2,,
{16}3>8[8:1],,4,4,1,,7,,5,6,5,6,8,4,3,4,
{16}1h[8:1],,7,3,1>3[12:1],,2,,4<7[8:1],,5,,1,,2,8,
{16}3,6,8,5,2,8,3,6,8,5,3,5,1,6,5,6,
{16}8b>3[8:1],,2,2,4,,5,,5/6qq7[24:5],,2,,8>3[8:1],,1,,
{16}8,,7,7,5,6,5,6,8,4,3,4,1,5,4h[8:1],,
{16}6bqq3[36:11],,,,8,8,,1h[16:5],,,,,2bqq8[8:1],,,,
{16}6bqq3[36:11],,,,1,1,,2qq1[16:3],{2},
{8}3/4-6[12:1],,4/7-3[8:1],1,4-6[12:1],2,7-3[8:1],1,
{8}7/2-8[12:1],,2/7-3[8:1],5,2qq3[16:3],4,26,,
{16}8b,4,6,4,1b,2,4,2,8,8,5h[8:1],,6,5,8,1,,4,3h[8:1],,
{16}1b,3,7h[8:1],,4b,6,2,4,1b,4,3,4,
{16}68,,15,,4,3,4,2bv3[8:1]/5bv6[8:1],{2},
{16}4b/8h[16:3],,,5,6,2,5,3,47,,5,24,,,13,,
{16}17,,23,,4b/6h[16:3],,,8,6,2,8,4,6,8,4,2,
{16}8b,,5,4b/6b,,34,2b/5b,,3>8[8:1],,4pp3[4:3],,,5,,,
{16},,,,,,,2bqq6[8:17],,,,,,,,,4qq5[16:25],
E
