&title=カラルの月
&artist=猫叉劇団
&first=0
&des=Tail_R
&lv_5=13+
&inote_5=(135.001)
{1},{4},{16},{64},
(135)
{2}1pp2[4:1],7qq6[4:1],
{1}3>5[2:1]*p5[2:1],
{8}1/7,2/6,3q4[16:5]/5,,,,,,
{8}1/7,2/6,3q5[16:5]/5,,,,{16}8,7,6h[8:3],,
{4}4bqq5[1:1],,8,7,
{4}6h[4:1],,4w8[8:1]/5,4,
{32}2,1,2h[16:3],,,,,,{8}8-4[8:1],1,2,,3/5,2/6,
{8}7-5[12:1]/1,8,3-1[12:1],2,5-7[12:1]*-1[8:1],,5,,
{32}2,8,2h[16:3],,,,,,{8}5,6/2,{32}7,1,7h[16:3],,,,,,{8}4,3/7,
{8}2qq4[2:1]/8h[2:1],,,,,,5,6,
{32}7,8,7h[16:3],,,,,,{8}1-5[8:1],8,7,,6/4,7/3,
{8}2^5[8:1]/8,3,{24}1,8,7,{8}6,4<8[4:1]/3,,1,2,
{8}3>7[4:1],,7,6,5V71[4:1],{16},4,{8}5,3,
{8}2<4[16:5],,2/3,,3-1[8:1]*-8[8:1],,3,,
{32}7,8,7h[16:3],,,,,,{8}1-5[8:1],8,7,,6/4,7/3,
{8}2-4[12:1]/8,1,6-8[12:1],7,4-2[12:1]*-8[8:1],,4,,
{32}7,1,7h[16:3],,,,,,{8}4,3/7,{32}2,8,2h[16:3],,7,,,,{8}6,3/5,
{8}7pp5[2:1]/1h[2:1],,,,,,4,3,
{32}2,1,2h[16:3],,,,,,{8}8-4[8:1],1,2,,3/5,2/6,
{8}7^4[8:1]/1,6,{24}8,1,2,{8}3,5>1[4:1]/6,,8,7,
{8}6<2[4:1],,2,3,4V28[4:1],{16},5,{8}4,6,
{8}7w3[8:1],,7,,1bv3[8:1]/5bv7[8:1],3b/7b,1b/5b,,
{2}2p5[2:1],5<2[2:1],
{4},7,5,6,
{2}7q4[2:1],4>7[2:1],
{4},2,4,3,
{2}1>5[2:1],5<2[32:11]*q2[32:11],
{4},8/1,6/4,7/3,
{2}8<4[2:1]/2,4>7[32:11]*p7[32:11],
{4},8>5[4:1]/6q5[4:1],,,
{16}3p5[4:1],,8,2,8,,7,,6^1[4:1],,4,5,4,,3,,
{16}2p4[4:1],,7,1,7,,8,,1<5[8:1],,2p5[8:1],,1,,2,,
{16}6q4[4:1],,1,7,1,,2,,3^8[4:1],,5,4,5,,6,,
{16}7q5[4:1],,2,8,2,,1,,8>4[8:1],,7q4[8:1],,8,,7,,
{16}2p5[4:1],,8,1,8,,7,,6^1[4:1],,4,5,4,,3,,
{16}3p5[4:1],,8,2,8,,7,,6<2[8:1],,5q2[8:1],,6,,5,,
{16}7q4[4:1],,1,8,1,,2,,3^8[4:1],,5,4,5,,6,,
{16}7q5[16:3],,1,8,1,,2,,4,6,3,7,2bp4[32:23],,8b<4[32:19],,
{4},,,{16},,3,7,
{16}2bp5[8:1]/8bq5[8:1],,,,2/8,,,,3/7,,{24}1^6[8:1],2,3,{8}4,1/3,
{16}2v5[8:1],,1/7,,{24}5>8[32:9]/2,6,7,{16}8,,7h[4:1],,,,,,2,6,
{16}1-6[8:1]/7,,2,2,1,,3,,7/5-8[8:1],,4,4,5,,3,,
{24}1>4[8:1]/6,,,4,5,6,{8}7qq5[8:1]/1,5q2[32:5]*<1[32:5],7,,,{16}3,8,
{16}2>5[8:1]/1q5[8:1],,,,2/1,,,,3/7,,{24}8^3[8:1],7,6,{8}5,8/6,
{16}7p3[8:1],,3,3,7q4[32:7]*>4[32:7],,2,,7,,,,,,3,6,
{16}4>1[8:1]/5p1[8:1],,,,4/5,,,,5q1[8:1]/1,,6,,{24}1/5,2,3,4,,,
{8}8b<4[4:1]/4bq1[4:1],,,,,,{16}3/5,,2,6,
{16}7bq4[8:1]/1bp4[8:1],,,,7/1,,,,6/2,,{24}4^7[8:1],3,2,{8}1,4/2,
{16}3v8[8:1],,{24}8,7,6,{16}5/3>5[32:9],,7,,6h[4:1],,,,,,3,7,
{16}8v3[8:1]/2,,7,7,8,,6,,2/4v1[8:1],,5,5,4,,6,,
{24}8<5[8:1]/3,,,5,4,3,{8}2pp4[8:1]/8,4p6[32:5]*>7[32:5],2,,,{16}5,2,
{24}6/1p3[8:1],,,4<8[8:1],5,6,7,,,4,,,{16}1,1,7,7,{24}2/6,,1/7,,3/5,,
{16}2q6[8:1]/6,,7,7,2p4[32:7]*<4[32:7],,8,,2,,,,,,6,3,
{16}5<8[8:1]/4q1[8:1],,,,5/4,,,,4p8[8:1]/8,,3,,{24}8/4,7,6,5,,,
{8}5b<1[8:1]/1bp4[8:1],,,,4w8[8:1],,4,,
{16}1b>4[8:1]/8b,,7,7,1,,6,6,5q1[8:1],,4,4,5,,3,3,
{16}2v5[8:1],,8,8,2,,{24}6,7,8,{8}1-6[8:1],4-1[8:1],1,4,
{16}8<5[8:1],,2,2,8,,3,3,4p8[8:1],,5,5,4,,6,6,
{16}7v4[8:1],,1,1,7,,{24}3,2,1,{8}8^3[8:1],5^8[8:1],8,5,
{16}2v5[8:1],,1,1,2,,8,8,6-3[8:1],,4,4,6,,2,2,
{16}4p8[8:1],,5,5,4,,6,6,1v4[8:1],,7,7,1,,{24}6,7,8,
{16}1-7[8:1],,2,2,1-6[8:1],,3,3,1-5[8:1],,4,4,1,,{24}4,3,2,
{24}1b,5,2,5,2,5,2,5,2,5,2,5,2,5,2,5,2,5,2,5,2,5,2,5,
{24}1b,5,1,5,1,5,1,5,1,5,1,5,8,5,8,5,8,5,8,5,8,5,8,5,
{1}7b<7[4:11]*>7[4:11],
E
&inote_6=(135.001)
{1},{4},{16},{64},
(135)
{2}1pp2[4:1],7qq6[4:1],
{1}3>5[2:1]*p5[2:1],
{8}1,2,3q4[8:3],,,,,,
{8}1,2,3q5[8:3],,,,{16}8,7,6h[8:3],,
{4}4bqq5[1:1],,8,7,
{4}6h[4:1],,4w8[8:1]/5,4,
{32}2,1,2h[16:3],,,,,,{8}8-4[8:1],1,2,,3/5,2/6,
{8}7-5[12:1]/1,8,3-1[12:1],2,5-7[12:1]*-1[8:1],,5,,
{32}2,8,2h[16:3],,,,,,{8}5,6/2,{32}7,1,7h[16:3],,,,,,{8}4,3/7,
{8}2qq4[2:1]/8h[2:1],,,,,,5,6,
{32}7,8,7h[16:3],,,,,,{8}1-5[8:1],8,7,,6/4,7/3,
{8}2^5[8:1]/8,3,{24}1,8,7,{8}6,4<8[4:1]/3,,1,2,
{8}3>7[4:1],,7,6,5V71[4:1],{16},4,{8}5,3,
{8}2<4[8:3],,2/3,,3-1[8:1]*-8[8:1],,3,,
{32}7,8,7h[16:3],,,,,,{8}1-5[8:1],8,7,,6/4,7/3,
{8}2-4[12:1]/8,1,6-8[12:1],7,4-2[12:1]*-8[8:1],,4,,
{32}7,1,7h[16:3],,,,,,{8}4,3/7,{32}2,8,2h[16:3],,7,,,,{8}6,3/5,
{8}7pp5[2:1]/1h[2:1],,,,,,4,3,
{32}2,1,2h[16:3],,,,,,{8}8-4[8:1],1,2,,3/5,2/6,
{8}7^4[8:1]/1,6,{24}8,1,2,{8}3,5>1[4:1]/6,,8,7,
{8}6<2[4:1],,2,3,4V28[4:1],{16},5,{8}4,6,
{8}7w3[8:1],,7,,1bv3[8:1]/5bv7[8:1],3b/7b,1b/5b,,
{2}2p5[2:1],5<2[4:3],
{4},7,5,6,
{2}7q4[2:1],4>7[4:3],
{4},2,4,3,
{2}1q5[2:1],5<2[32:11]*q2[32:11],
{4},8/1,6/4,7/3,
{2}8p4[2:1]/2,4>7[32:11]*p7[32:11],
{4},8>5[4:1]/6q5[4:1],,,
{16}3p5[4:1],,8,2,8,,7,,6^1[4:1],,4,5,4,,3,,
{16}2p4[4:1],,7,1,7,,8,,1<5[8:1],,2p5[8:1],,1,,2,,
{16}6q4[4:1],,1,7,1,,2,,3^8[4:1],,5,4,5,,6,,
{16}7q5[4:1],,2,8,2,,1,,8>4[8:1],,7q4[8:1],,8,,7,,
{16}2p5[4:1],,8,1,8,,7,,6^1[4:1],,4,5,4,,3,,
{16}3p5[4:1],,8,2,8,,7,,6<2[8:1],,5q2[8:1],,6,,5,,
{16}7q4[4:1],,1,8,1,,2,,3^8[4:1],,5,4,5,,6,,
{16}7q5[16:3],,1,8,1,,2,,4,6,3,7,2bp4[32:23],,8b<4[32:19],,
{4},,,{16},,3,7,
{16}2bp5[8:1]/8bq5[8:1],,,,2/8,,,,3/7,,{24}1^6[8:1],2,3,{8}4,1/3,
{16}2v5[8:1],,1/7,,{24}5>8[32:9]/2,6,7,{16}8,,7h[4:1],,,,,,2,6,
{16}1-6[8:1]/7,,2,2,1,,3,,7/5-8[8:1],,4,4,5,,3,,
{24}1>4[8:1]/6,,,4,5,6,{8}7qq5[8:1]/1,5q2[32:5]*<1[32:5],7b,,,{16}3,8,
{16}2b>5[8:1]/1bq5[8:1],,,,2/1,,,,3/7,,{24}8^3[8:1],7,6,{8}5,8/6,
{16}7p3[8:1],,3,3,7q4[32:7]*>4[32:7],,2,,7b,,,,,,2,5,
{16}3b>8[8:1]/4bp8[8:1],,,,3/4,,,,4p8[8:1]/7,,3,,{24}4/8,7,6,5,,,
{8}8b>4[4:1]/4,5,6,7,8h[4:1],,{16},,2,6,
{16}7bq4[8:1]/1bp4[8:1],,,,7/1,,,,6/2,,{24}4^7[8:1],3,2,{8}1,4/2,
{16}3v8[8:1],,{24}8,7,6,{16}5/3>5[32:9],,7,,6h[4:1],,,,,,3,7,
{16}8-3[8:1]/2,,7,7,8,,6,,2/4-1[8:1],,5,5,4,,6,,
{24}8<5[8:1]/3,,,5,4,3,{8}2pp4[8:1]/8,4p7[32:5]*>8[32:5],2b,,,{16}6,2,
{24}5b/1bp3[8:1],,,4<8[8:1],5,6,7,,,4,,,{16}1,1,7,7,{24}2/6,,1/7,,3/5,,
{16}2q6[8:1]/6,,7,7,2p5[32:7]*<5[32:7],,6,,2b,,,,,,7,4,
{16}6b<1[8:1]/5bq1[8:1],,,,6/5,,,,5q1[8:1]/2,,6,,{24}5/1,2,3,4,,,
{8}1b<5[4:1]/5,4,3,2,1w5[8:1],,{16}1,,,,
{16}1b>4[8:1]/8b,,7,7,1,,6,6,5q1[8:1],,4,4,5,,3,3,
{16}2v5[8:1],,8,8,2,,{24}6,7,8,{8}1-6[8:1],4-1[8:1],1,4,
{16}8<5[8:1],,2,2,8,,3,3,4p8[8:1],,5,5,4,,6,6,
{16}7v4[8:1],,1,1,7,,{24}3,2,1,{8}8^3[8:1],5^8[8:1],8,5,
{16}2v5[8:1],,8,8,2,,7,7,6<1[8:1],,5,5,6,,4,4,
{16}3-6[8:1],,7,7,3,,8,8,7<4[8:1],,3,3,7,,{24}3,2,1,
{16}8-3[8:1],,1,1,6-2[8:1],,7,7,4,,3,3,2/4,,{24}4,1,4,
{24}2b,5,2,5,2,5,2,5,2,5,2,5,2,5,2,5,2,5,2,5,2,5,2,5,
{24}1b,5,1,5,1,5,1,5,1,5,1,5,8,5,8,5,8,5,8,5,8,5,8,5,
{1}7bq5[4:11]*>5[4:11],
