&title=Mahou Shoujo Chino
&artist=Chino (CV: Minase Inori)
&first=0.564
&des=DenWog10
&lv_4=8
&lv_5=12
&inote_4=(170)
{4}2,34,7,56,45,18,1h[4:1],3,
24,3,57,6,{2}5w1[2:1],,{4}1bx,
{2}2h[4:1]/8h[4:1],3h[4:1]/7h[4:1],4h[4:1]/6h[4:1],{4}5b,
{2}1h[4:1]/2h[4:1],{4}38,47,{2}5h[4:1]/6h[4:1],4h[4:1]/7h[4:1],{4}1b/2b,
{4}3,4,5,7h[2:1],1,1,2-4[8:1],{8}6,6,{4}8x,1,{8}2,,{2}3pp3[2:1]b*qq3[2:1]b,,
{8}6,6,{4}57,{8}3,3,24,,3p5[4:1],,8,8-4[8:1],,8,,,
{8}4,4,{4}35,{8}8,8,17,,7v5[4:1],,1,1v4[8:1],,1,,,
{4}13,24,35,{8}6-2[2:1]/4-8[2:1],,,,,,,
{8}1x,1x,,
{4}68,57,46,5v2[2:1]/3-7[2:1],,,{8},8x,8x,,
{4}2h[4:1],3h[4:1],4h[4:1],5pp1[2:1],4,3,2,18,
{4}7h[4:1]b,6h[4:1],5h[4:1],4qq8[2:1],5,6,{8}7,1x/8x,1x/8x,,
{4}3,2h[4:1]/4h[4:1],,6,5h[4:1]/7h[4:1],,18,45,{8}36,36,36,36,1bx/8bx,,2h[4:1]/7h[4:1],,,3x,4x,5x,6x,7x,8-3[2:1],,6,,,,4,,{4}34,
{8}25,,16,,8x,7x,6x,5x,4V28[2:1],,5,,,,7,,{4}78,16,{8}25,3x,4x,5x,
{8}5b/6b,4b/7b,,34,25,,1b/2b,3b/8b,,78,16,,27,27,36,36,{2}5pp8[2:1]/4qq1[2:1],,
{8}2,3,4,5,6,7,8,1,{2}2^5[4:1],6^1[4:1],{4}2h[2:1],,
{8}8,7,6,5,{2}4^1[4:1],8^5[4:1],3h[2:1],
{8}1x,7x,5x,3x,{2}1h[4:1],2h[4:1]/8h[4:1],
{8},,4,5,6,7,8,1,2,,56,56,,12,12,,{2}5pp4[2:1]b/4qq5[2:1]b,,
{8}12,3,34,5-1[8:1],5,,8bx,,{1}7V13[2:1]*V53[2:1],
{8}78,6,56,4-8[8:1],4,,1bx,,{1}2<6[2:1]*>6[2:1],
{8}1,1,12,,3,3,34,,4-7[8:1]*-8[8:1],,4,,8x,8x,16,,
{4}1h[4:1],2h[4:1],3h[4:1],4h[4:1],{4}6,5b/6b,4b/7b,3b/8b,1b/2b,
{8}3,3,4x/6x,,6,6,{1}3qq4[2:1]/5pp4[2:1],
{8}6,6,45,,3,3,4b/5b,,4^7[8:1]*-8[8:1],,4,,1^4[8:1]/7^4[8:1],,17,,
4b,4,23,,2,2,18,,7-3[8:1]*^5[8:1],,7,,2w6[8:1],,2,,
3x,4x,5x,6x,{4}7-3[8:1],7b,
{8}6x,5x,4x,3x,{4}2-6[8:1],2b,
{2}1h[2:1],{4}4h[2:1],,{8}6,6,57,,{4}3,24,{8}1,1,28,28,37,,
{4}3hx[8:1]/7hx[8:1],2hx[8:1]/6hx[8:1],3hx[8:1]/7hx[8:1],2hx[8:1]/6hx[8:1],2v3[8:1]b/7v6[8:1]b,
&inote_5=(170)
{8}1,2,{4}3,{8}5,6,{4}7,{8}3,4,{4}5,8-4[8:1],4-1[8:1]*-7[8:1]/8,4,
{8}1,2,1,3,{4}3x/4x,{8}5,{4}56,{8}7,{4}78,1V35[8:1]*v75[8:1],1b,
{4}6h[4:1],5h[4:1],4h[4:1],3,{2}2^7[4:1],{8}6,6,4x/5x,,
{2}1/2-5[8:1],7-4[8:1]/8,
{8}3,1,2,8,{4}5x/7x,24,
{4}1-5[8:1],7v4[8:1],2v5[8:1],,{8}7,8,,,1,2,1x/8x,,28,3b,1x/3x,,24,,3qq4[2:1]/5pp4[2:1],,
{2},{4},
{8}2,4,3,5,{4}5x/7x,68,{8}1,1,{2}2-6[4:1]/8-4[4:1],{4},
{8}7,5,6,4,{4}2x/4x,13,{8}8,8,{2}1v4[4:1]/7v4[4:1],{4},
3-1[4:1],1-5[4:1],5-7[4:1],7V13[4:3],{8}1,,4,4,,5,5,,
{4}5-1[8:1],1-4[8:1],4-8[8:1],{4}8qq4[2:1]*pp4[2:1],,,{8},3,24,,
1,8,7,,5,3,4,2,1x/2x,1x/2x,3x/8x,,5x/6x,5x/6x,4x/7x,,
{4}7v1[8:1]*-5[8:1],7b,2v8[8:1]*-4[8:1],2b,1v4[8:1]/8-5[8:1],,5s1[8:1]/4z8[8:1],,
{8}2,2,13,,6,6,57,,3qq1[8:1]*pp5[8:1],,3,,7pp1[8:1]*qq5[8:1],,7,,15,15,15,15,4bx/8bx,,3,,{2}3w7[2:1],,
{4}6^8[4:1],{8},4,4,,2,13,,18,18,,8,7,6,5,{4}3^1[4:1],{8},5,5,,7,68,,45,45,,4,3,2,1,
7-4[8:1],1,,2-5[8:1],8,,8-4[8:1]b,2,,1-5[8:1]b,7,,6V42[4:1],,2V86[4:1],,{2}6q2[2:1]*p2[2:1],,
{8}3,4,5,6,7,8,1x/2x,3x/8x,{4}4-1[8:1]/7-4[8:1],47,1pp2[8:1]*qq8[8:1],1b,7-2[8:1]/3-6[8:1],37,
{8}4x,5x,6x,7x,{4}7-5[8:1]/8-2[8:1],78,3-1[8:1]/4-6[8:1],34,8-3[8:1]/7v4[8:1],,
{8}5x,6x,2x,1x,{4}7v4[8:1]/8,1-5[8:1],18,5h[4:1]/7h[4:1],,{8}6,5,4,3,2,1,
{4}8-4[8:1]/7-4[8:1],78,1-5[8:1]/2^5[8:1],12,{2}4qq5[2:1]/6pp5[2:1],,
{8}3,4,,6,5,,7-3[8:1],1x,2-4[8:1],,8,8,{4}1x/8x,57,
{8}1,3,,5,4,,7-5[8:1],8,4-8[8:1],,45,,2bx/4bx,,18,,
{8}1,2,,4,3,,6V82[4:1],,{2}2v5[4:1]*^5[4:1],{8},6,5b/7b,,
{4}1h[4:1],2h[4:1],3h[4:1],{8}4,4,8,17,26,35,{4}4hx[8:1],3b/5b,
{8}1,3,2,4,3v6[8:1],,3,,7v2[8:1],,7,,{2}5qq5[4:1]*pp5[4:1],
{8}3,1,2,8,{4}7-3[8:1]*^4[8:1],7,2-6[8:1]*^5[8:1],2,8w4[8:1],8,
{8}3,3,24,1x/8x,6,6,57,,{4}4-2[8:1]/5-1[8:1],4-8[8:1]/5-7[8:1],4b/5b,
{8},18,{4}1b/8b,2b/4b,4b/5b,5b/7b,{8}18,18,3,24,,6,57,1,1,12,{4}1/2^5[2:1],,,6^1[2:1],,,2-4[8:1],4p6[4:1],,7-5[8:1],5q3[4:1],,,{8}1,18,,4,45,
