&title=A Horny Money World ~伝説の夜~
&artist=宝鐘マリン
&first=-0.02
&des=揽佬 来,来财。
&lv_5=13+
&inote_5=(145)
{4},,
{12}Cf,Cf,Cf,Ch[8:17]/E7f/E3f,,,,,,,,,,,,,,,,,,,,,,,,
{24},,,8x,B8f,2x,B2f,7x,B7f,3x,B3f,6x,B6f,4x,Chf[1:1],,,,
{12},,,,,,,,,,
{16}7b,,,,3/4,,4x,,3,4,3x,,2x/5^7[8:1],,2/5x,,B2/E3,,,,
5/6,,5x,,6,5,6x,,4v2[8:1]/7x,,4x/7,,E8/B8,,,,
6xh[16:1],,2xh[16:1],,3-1[8:1]/5-7[8:1],,6x,,3x/5,,,,
E8/E1,,,,B6/C/B2,,,,A5/E5/B4/E4/A3,,,,
2bv5v8[16:6]b,,,,2x/7-3[8:1]b,,,,,,,,1x,,3/5,,7x,,4/6,,
3xqq3pp3[16:9]b,,2x/5x,,E7/A7,,,,E2/B2,,,,
8xq6-4[16:6]b,,,,3-7[8:1]b/8x,,,,,,,,8x,,1/6,,2/5,,,,
B4/B5,,,,B8/E4,,,,4xV27[6:1]/8xV63[6:1],,,,,,,,
1xbh[16:3],,,5,,,6xh[8:1],,7-5-7[4:1],,4/5x,,4xh[8:1],,,,
3xh[16:3],,,8,,,7xh[8:1],,6pp5[4:1],,4x/5,,3xh[8:1],,,,
2x-5-7-2[17:5],,,8,,,C,,5x,,6,,4x/7h[8:1],,3,,
5/6xp3[16:6],,,,2-5[8:1],,,,,,,,4xbw8[8:1],,,,Cf,,,,
{16}2-4[8:1],,6x-8[8:1],,,,,,5xqq3[8:1]*pp7[8:1],,,,B4f/B6f,,,,
1-7[8:1],,6x-1[8:1],,,,,,5x-2[8:1]*-8[8:1],,,,B3/B7/Cf,,,,
1-3[8:1],,3x-8[8:1],,,,,,4xp4[4:1],,,,4>5[17:5],,,,,,,,C,,,,
6b<2v4[19:5]b,,,,{24}E7f,E8,E1,E2,
{16}3,,,3x,,8x-4[8:1],,2,,7xh[8:1]/8,,,,6bh[16:3],,,3x,,,2,,
1x-5[8:1]*-5[8:1],,8,,1/3xh[8:1],,,,2bh[16:3],,,6x,,,7,,
8x-4[8:1]b,,1,,2x^4q5^7[16:7]/8,,,,C,,,,C,,,,8x,,8,,
1/7xb>3[21:4]b,,,,{24}3xv5[8:1]b,E8f,E1,E2,E3,
{16}4,,,4x,,E3,,C,,E7/1xh[8:1],,,,2bh[16:3]/8,,,
7,,,6x,,B1/B2,,B5/B6,,7xh[8:1]/B3/B4,,,,2/6bh[16:3],,,3,,,4x,,
E6/B6/B5,,B2/E3/B3,,4xh[8:1]/E8/B8/E1,,,,5h[8:1]/6xh[4:1],,,,
1x^8v2^5[16:5]b,,,,1x,,7x,,{32}A8f,B8,C,B4,A4,,
{16},2bh[16:1],,3/4h[16:1],,1xh[16:1],,4/5h[16:1],,
2x-4[8:1]b,,5/4-8[8:1]b,,2x,,B6/E6,,
7xh[16:1],,6/5h[16:1],,8xh[16:1],,5/4h[16:1],,
7v4[8:1]b,,3xv8[8:1]b,,7,,3x,,
5x,,5,,6x,,6,,A8/A1/E1/E8/E2,,,,Chf[2:1],,,,B6/B5/B4/B3,,,,,,,,
1b/2x,,6/5,,8x/4b,,3-8[8:1]/7-4[8:1],,2b/6b,,,Cf,,,
1h[4:1]/5xh[8:1],,,,7,,6-2[8:1]b/8x,,3/5,,2xq7[16:3]b,,,3xh[16:3],,,,,,,
1xb,,1xb,,2/8^3[16:3],,1x/7h[16:3],,8x^5[6:1],,,,8,,,,3x,,7/8x,,4/5,,
3,6,2,7,1,,8x,,8x-4[8:1]b,,1h[8:1],,Cf,,,,
2b-6[8:1],4x,,4,2,,5xh[4:1],,,,6x,,7p3[6:1]b/8x,,1,,3xV58[6:1]b,,,
2xh[16:3],,,,,,,2,,1b/8xb,,7,,1xb-7-3-5[16:13]/8xb-2-6-4[16:13],
,,,,,,,,,,,,,,,,,,{24},
Chf[2:1],
{48},,,,,,,,,,,,,,,,,,,,,,,,,,,,,,,,,,,
{16}2,6,3,7,2,6,3,7,1,,3/5x,,1,,5/3x,,
6,2,7,3,8,,4/5,,7-4[8:1]/8x,,3-8[8:1]/4x,,7,,3,,
5x-7[8:1],,5,,8x-4[8:1],,8,,1x-5[8:1]b,,1,,4x-2[8:1]b,,4,,
5xh[16:1],,6h[16:1],,7xh[16:1],,8h[16:1],,
1/2x-5[8:1],,3/4-8[8:1],,2x,,4,,B2/E3f,,,,
1<3[4:1]b,,1x,,3q1[6:1]b,,3x,,2h[8:1],,,,
3x-1[8:1],,4,,3/5-7[8:1]b,,,,8xw4[6:1]/5,,,,8,,,,
2b-4[8:1]/6b-4[8:1],,,,2/6,,,,3h[8:1],,2x,,3/4,,5xh[8:1],,
Chf[2:1],,,,,,,,B7/E7/B3/E3,,,,,,,,
2bv5v8[16:6]b,,,,2x/7-3[8:1]b,,,,,,,,1x,,3/5,,
6xpp6qq6[16:9]b,,7x/4x,,E3/A2,,,,E8/B7,,,,
8xq6-4[16:6]b,,,,3-7[8:1]b/8x,,,,,,,,8x,,1/6,,2pp3pp4pp5[16:11]b/5,,,,
E8,,,,E1,,,,E2,,,,8b-4[8:1],,,,
1x/8,,,,3,4,2,5,1,,5/7,,1h[8:1]/7x,,,,2/8,,7,7,1x,,8,,1/2h[8:3],,4,,4-1[8:1],,,,
4x/5,,6h[16:1],,7/8x,,1,,2/6,,3/7,,4/8,,,,
B5/B4,,,,B8/E4,,,,5-2[10:1]/6-1[10:1],,,,{32}E6,Cf,E2,,,,,,
{16}8h[16:1],,7xh[16:1],,1/6,,2x,,3/5,,7,,4/6,,1x,,
5,5,4x-2[8:1],4,6,,4x,,5h[8:3],,1,,1-5[8:1],,,,
1/8,,7,,5/6x,,4h[8:1],,5,4,6^3[6:1],3,7,,2x,,1,,,,2^5[6:1]/8^5[6:1],,,,,,,,C,,,,
2/8,,7,,4/6,,3h[8:1],,5xv3[6:1],,5,,5/6,,7x,,8p4[8:1],,2,2,8x,,1,,
2xh[16:1],,4h[16:1],,5/3,,6,,B3/E4,,B7/E7,,C/B1,,,,
7xh[8:1],,6h[8:1],,5x-7-4-1-3[16:8]b,,,,3x/5x,,,,C,,,,
5xw1[8:1],,,,Cf,,,,
3-7[8:1]b/7-3[8:1]b,,,,Cf,,,,2x/6,,3,,4/7x,,8,,
1q5[8:1]b*p5[8:1]b,,,,Cf,,,,4x/6,,4,,3/7x,,7,,
2-6[8:1]b/8-4[8:1]b,,,,Cf,,,,3x/7x,,5,,1x/8,,2,,
3^1-5-3[16:6]/7^4pp3[16:6],,,,,,,,,,,,
7x^4[8:1]b,,,,E2f/7,,,3x,,,2/5x,,1/6,,7,,
2x-5[8:1]b/8,,,,2/E8f,,,7x,,,6/4x,,5/7,,4,,
3/8x-4[8:1]b,,,,E2f/8,,,2x,,,3/5x,,4/6,,8,,2/5,,3xh[16:10],,
B5,,,,C,,,,B1,,,,
7xb>3v5[19:5]b,,,,{24}E8f,E1,E2,E3,
{16}4x,,,4,,3/6-3[8:1],,2,,1h[8:1]/6x,,,,
2bh[16:3],,,8x,,,7,,1-5[8:1]*-5[8:1]/6,,2,,1/8xh[8:1],,,,
7bh[16:3],,,4x,,,3,,2/8x-3[8:1]b,,7,,6xp4>7[16:9]/8x,,,,
6x,,,,E1,,,,E3,,4,,6x<2[21:4]b,,3,,{24}2bv4[8:1]b/E7f,E8,E1,E2,{32},
{16}3x,,,3,,{16}B1,,B5,,B7/3xh[8:1],,,,2bh[16:3],,,6,,,5,,
B4/E5,,E8/B8,,E2/E3/6xh[8:1],,,,7bh[16:3],,,4,,,3,,E6/B6/B5,,E2/B1/B2,,
3xh[8:1]/7xh[8:1],,,,8bh[1:1]/1b,,,,,,,,{32}A1f,B1,C,B5,A5,,
{16},,,,,4xh[32:1],,3xh[32:1],,6xh[32:1],,7xh[32:1],,
2b/8,,4/6,,1/5b,,3v1[8:1]b/7v5[8:1]b,,2b/6b,,,Cf,,,
2xh[4:1]/6x,,,,8,,3x/7-3[8:1]b,,4/5,,2z6[16:4]/7x,,,4xh[16:3],,,,,,,
7xb,,8xb/1b-6-2[4:1],,2x,,1/8,,8x-4[8:1]b,8x,,,7xh[4:1]/8,,,,
3,,2/6x,,4/8x,,7x,7,3x,3,8,,1-5[8:1],,5-1[8:1],,1x,,Cf,,,,
8bV24[6:1]b,1x,,7,8x,,6h[4:1],,,,5,,4>4[16:6]b/6x,,3x/5,,2/4x,,,,C,,
,,3x,,5,,2b/6xb,,8,,2xb-7-3-8[16:13]/6b-1-5-8[16:13],,,,,,,,,,,,,,,,,,,,
Chf[2:1],,,,,,,,,,,,
2x,1,3,8,4,7,5,6,3x,,5/6,,8x,,3/4,,
7,8,7,8,6x,6,1x,1,5x-7[8:1],,1-3[8:1],,5x,,1,,
7x^5[8:1]b,,7,,8xp4[8:1]b,,8,,1xq5[8:1]b,,1,,2x^4[8:1]b,,2,,
8xh[32:1],,8h[32:1],,5xh[32:1],,5h[32:1],,
6x/7x,,5h[32:1]/8h[32:1],,6x-3[8:1]/7x-2[8:1],,5h[32:1]/8h[32:1],,
{32}6x/7x,E7,Cf,E3,
{16},,1x,,8,,2x/7,,3,,4/6x,,7,,5x-7[8:1],,4,,3-1[8:1]/5,,,,3/8x,,,,
{32}B1,B2,B3,,,,,,
{16}5-2[8:1]/7-4[8:1],,,,5x/7x,,,,1xh[8:1],,4h[8:1],,2h[1:0],,3/8,,4/7,,,,
Chf[2:1],,,,,,,,E7/B6/B2/E3,,,,
7bv4v1[16:6]b,,,,7x/2-6[8:1]b,,,,,,,,8x,,7/5,,
4qq4[4:1]b,,5x,,4xpp4[4:1]b,,,,,,,,
8xq6-4[16:6]b,,,,3-7[8:1]b/8x,,,,,,,,8x,,1/6,,
2v4[16:3]/5,,,,2xp5[16:3]*p5[16:3],,,,2x<6[16:3]b,,,,2x,,,,
8b-4[8:1]b,,,,1/8,,,,3,4,2,4,1-6[8:1],,8x,,2xh[8:1]/1,,,,
5xh[8:1],,6,6,5x^7[8:1],,4,,3/5,,2x,,1x-5[8:1],,7,,
1/8x,,7h[16:1],,5x/6,,4,,3/5,,2/6,,1/7,,,,
B4/B5,,,,A8/E1/B8/B3/B4,,,,4xV27[6:1]/8xV63[6:1],,,,E4f/E8f,,,
{128},,,,,,,
{16}1xh[4:3]/5x,,,6,,,7,,,,8,,8h[4:5],,,,,,,E2,,,E3,,,,E4,,5x-1[8:1],,,,5,,,
7h[32:1],,,6h[32:1],,,,2h[32:1]/5h[32:1],,2h[32:1]/5h[32:1],,,,
{64},
{16}E3,,,,E7,,,,Chf[4:1],,,,,,,,8h[4:3],,,1,,,7,,,,6,,
2xh[4:5],,,,,,,,,,8x,,,,,,,,,,6xh[8:14],,,,,,,,,,,,
1xs5[2:1],,,,,,,,,,,,,,,,4b,,,,,,,,,,,,,,,
C,
E
