&title=ガブチ feat. 重音テトSV
&artist=lapix
&first=1.39
&lv_5=14
&des=mmfc
&inote_5=
(190){4},{8},,,,,,5/3,
7,6/4,2,1/5,B1/C/B5,,7,
{4}2/6<1[8:1],4w8b[8:1],{16}4b,Cf,,,,,,,{4}2q6[8:1]/6q2[8:1],
2/6>1[4:1],{8}8,8,,6,
4/6,2,5/3,7,{2}1-6[8:1]/6-1[8:1],
{4}3-1[8:1]/7-1[8:1],3/7v6-4[4:1],{8}4,4,,2,
1/5,7,8/3,4,{4}5/6-2[8:1]*-1[8:1],6b,
4>1[8:1]/8<5[8:1],8/4q5[4:1],{8}6,6,,8,
8/2,3,1/7,6,{2}2-5[8:1]/5-2[8:1],
{4}7-4[8:1]/3-8[8:1],3/7V15[4:1],{8}2,2,,4,
3/7x,6,5/1x,2,{2}8x<5[8:1]/3xs7[4:1],
{8}4,8,4,2,4,6,4,2,
{4}4pp7[2:1],8>3[8:1],8,4,
{8}6/4,6,5,7,3,1,2,8,
4/7,5/6h[4:1],,,5/2,4/3h[4:1],,,{4}4x/7x,
{8}1,5,1,3,1,7,
{4}1pp5[8:3],4-7[8:1],,8/3,
{8}7/1,2h[4:1]/8-4[8:1],,8V24[4:1],,8/6,{4}6,
{2}7/5p1[8:1]*v8[8:1],{4}7<4[8:1]/3>8[8:1],7b/3b,
{8}B2/B6/Cf,{16}3,4,{8}2,{16}6,5,{8}7,{16}2,4,{8}3,{16}7,5,
{8}6h[8:1],{16}8,7,1,8,2,1,{4}3-7[8:1],3/4,
{8}6/5,{16}3,1,{8}2,{16}6,8,{8}7,{16}2,1,{8}3,{16}7,8,
{8}6h[8:1],{16}4,5,3,4,2,3,{2}1v4[8:1]*v6[8:1],
{4}Cf,D8/E8,D4/E4,E7/D7,
D3/E3,E6/D6,D2/E2,E1/C/E5,
{8}1x/8x,{16}7,5,{8}6,{16}2,4,{4}3h[8:3],{8}5,7,
1/5,8/4,{4}3-8b[8:1]/7-4b[8:1],{16}3b/7b,Cf,,,,,,,{8}2x/6x,
B1/B8/B7,{4}2x/6x,{8}2x/6x,B3/B4/B5,{4}2x/6x,
{8}2x/6x,B1/B8/B7,2x/6x,B3/B4/B5,{4}2x>5[8:1]/6x<1[8:1],2b/6b,
{8}7x/3x,B4/B5/B6,{4}7x/3x,{8}3x/7x,B2/B1/B8,{4}7x/3x,
{8}3x/7x,B4/B5/B6,7x/3x,B2/B1/B8,{4}3x>8[8:1]/7x<4[8:1],7b/3b,
{2}6/2-5[8:1],4/8-4[8:1],
{4}5/1-5[8:1],7-4[8:1],{2}3w7[8:1],
{4}1b/5b,{16}2,6,2,6,3,5,3,5,3,5,3,5,
{4}4x-2[8:1]*-1[8:1],4x-7[8:1]*-6[8:1],4x,2qq6[2:1],
2/5,6-4-2-8[2:1],{2}7qq3[2:1],
{8},2,,1-3[8:1],1-5[8:1],,,4-2[8:1],
4-8[8:1],,,1-4[8:1],1-6[8:1],,,5-2[8:1],
5-8[8:1],,,1-5[8:1],{4}1,7pp3[2:1],
4/7,3-5-7-1[2:1],{2}2pp6[2:1],
{8},7,,1-7[8:1],1-5[8:1],,,6-2b[8:1],
6bh[8:7],,,,,,,4,
{4}6/2,{8}1/5,3qq3[4:1]/7qq7[4:1],,,,,6x/2x,
B7/B8/B1,6x/2x,B5/B4/B3,1x/7x,B6/C/B2,5x/3x,B6/C/B2,
7x/1x,8/2,7/3,6/4qq5[4:1],,8qq1[4:1],,8,
{4}2,{8}3,8/3V17[4:1],,7V53[4:1],,3V17[4:1],
,7,6,5-2[8:1]*-1[8:1],,5,,3,
3/8-4[8:1],7,8/2-5[8:1],3,2/6-1[8:1],7,6/4,3,
2,1/7,6/2,3/5pp4[4:1],,2,,1-6[8:1],
1,5-3[8:1],,5/2-6[8:1],,2/7>5b[8:3],,7/B5f/E6/E5,
,,1,1,{4}2/8w4[8:1],8b,
{8}2x/6x,B1/B8/B7,{4}B3/B4/B5,{8}7x/3x,B2/B1/B8,B4/B5/B6,2x/8x,
B3/C/B7,4x/6x,1x/7x,B2/C/B6,{2}3xqq1[8:1]/5xpp7[8:1],
{4}2/8-4[8:1],{8}3/8-6[8:1],3,8/5-2[8:1],5,8,8,
6/1>4[8:1],1,5,5,{4}7/1w5[8:1],1,
{8}7x/3x,B8/B1/B2,{4}B6/B5/B4,{8}2x/6x,B7/B8/B1,B5/B4/B3,7x/1x,
B6/C/B2,5x/3x,8x/2x,B7/C/B3,{2}6xpp8[8:1]/4xqq2[8:1],
{8}7/1-5[8:1],7,6/1-3[8:1],6,1/4-7[8:1],4,,8,
1>4[8:1]*<6[8:1],1,{4}1-5[8:1],1,7b/3b,
{8}6/4,2,5/3,7,8/4,B8/C/B4,,2,
{4}7/3>8[8:1],5w1b[8:1],{16}5b,Cf,,,,,,,{1}3h[1:1]/7pp3-5b[2:3],
{4},2x-6[8:3],{8},,,,7x,
4h[8:5]/7p3qq1[8:5],{16},,,,,,,,,,,,2h[16:3],
,,3h[16:3],,,{8}4,{2}4-7[8:1]*-8[8:1],
{4}1h[8:1]/2h[8:1],4h[8:1]/3h[8:1],5h[8:1]/6h[8:1],7h[8:1]/8h[8:1],
{8}1/2,2/1,7/8,7/8,5/6,6/5,{16}3-7b[8:1],4,3,4,
{1}3xv8-2[2:1]*v6-4[2:1],
{4}3b/7b-4b[8:1],1x-5b[8:1],6x-2b[8:1],3xw7b[8:1],
{1}Cf,
{4},,,,2h[8:1],
3h[8:1]/C,4h[8:1]/E3,5h[8:1]/E7,
6h[8:1]/C,7h[8:1]/E3,E7/8-4b[8:1],Cf,
2h[2:1],{8}1,8,{4}7h[2:1],{8}8,1,
{4}2h[4:3],{8}1,8<5[8:1],,,,4,
3/C,2,1/E7,8,7/E3,6,{4}C/5qq5[8:3]*pp5[8:3],
{2}5x,1w5[8:1],
{8}7b/3b,{16}2,1,{8}2,{16}7,8,{8}7h[8:1],{16}5,6,4,5,{8}3,
2/8,{16}7,5,{8}6,{16}3,4,{8}2,7/1,6/5,{16}7,8,
{8}7,{16}2,1,2,1,{8}3h[8:1],{16}5,4,6,5,{8}7,8/2,
6/4,{16}7,8,7,8,{8}6h[8:1],{16}1,2,3,4,5/1,8,7,6,
{2}1bx-5[8:1]/5bx-1[8:1],2bxv3[8:1]/6bxv7[8:1],
{16}4bxh[8:1]/8bxh[8:1],,,3xh[8:1]/7xh[8:1],,,{8}6x/2x,{4}6/2,C/E5/E1,
8x/1x,{8}2/4,4/5,{4}5/7-3[8:1],2,
{8}8/4,1/5,{4}6-1[8:1]/2-5[8:1],{16}6b/2b,Cf,,,,,,,{8}7x/3x,
B8/B1/B2,{4}7x/3x,{8}7x/3x,B6/B5/B4,{4}7x/3x,
{8}7x/3x,B8/B1/B2,7x/3x,B6/B5/B4,{4}7x<4[8:1]/3x>8[8:1],7b/3b,
{8}2x/6x,B5/B4/B3,{4}2x/6x,{8}6x/2x,B7/B8/B1,{4}2x/6x,
{8}6x/2x,B5/B4/B3,2x/6x,B7/B8/B1,{4}6x<1[8:1]/2x>5[8:1],2b/6b,
3h[16:3]/7h[16:3],6h[16:3]/4h[16:3],3/5h[16:3],E8/B7,
{16}2/4,,,4h[48:11]/6h[48:11],,,,,{4}5/3h[4:1],B1/B2,
7h[16:3]/5h[16:3],4h[16:3]/6h[16:3],5h[16:3]/3h[16:3],4-7[8:1]/2-5[8:1],
{1}2x/4xz8b[2:1],
Cf/1bqq5V38V64[4:13],
{4},,,,,,,,,,,,5/2h[2:1],
6,{8}7h[8:3],,,5,
{16}6h[8:1]/5h[8:1],,,5h[8:1]/4h[8:1],,,{8}4/3,2<7[4:1],,,6,
{4}6>3[4:1],3>8[4:1],8<7-5[4:1],5-1b[4:1],
1>4b[4:1],4V68b[4:1],{8}8V24b[4:1],1,{4}2,
C,{8}6/5,6-1[8:1]/5-1[8:1],4/7,,,2,
3/4,3/4,5/2,5-1[8:1]/2-5[8:1],1/6,,,8,
{1}6bqq6[2:1]/2bqq2[2:1],
{16}3,7,3,7,3,7,3,7,{32}3,2,1,8,7,6,5,4,{4}3/7,
2b-5[8:1]/6b-1[8:1],6x/2x,7b<4[8:1]/3b>8[8:1],3x/7x,
{8}1x/2x,6x/5x,7x/8x,4x/3x,{2}B6/B2/Cfh[4:1],
{4}7b/1bpp8[4:1],{8}6,6>3[8:1],,1-4[8:1],2,1/7-3[8:1],
6,7/8-4[8:1],1,8<5[8:1]*>3[8:1],,8,,4,
7/3>8[8:1],3,5q1[8:1],5,4p8[8:1],4,6,6h[8:1],
1,2/8,3/7,4/6pp5[4:1],,1,,2-8[8:1],
3,2/7-3[8:1],6,7/2-5[8:1],1,2/6<3q5b[8:5],,6/B4f/E5/E4,
,,,,{4}1w5[8:1],1b,
{8}7x/3x,B8/B1/B2,{4}B6/B5/B4,{8}2x/6x,B7/B8/B1,B5/B4/B3,7x/1x,
B6/C/B2,5x/3x,8x/2x,B7/C/B3,{2}6xpp8[8:1]/4xqq2[8:1],
{4}7/1-5[8:1],{8}6/1-3[8:1],6,1/4-7[8:1],4,1,1,
3/8<5[8:1],8,4,4,{4}2/8w4[8:1],8,
{8}2x/6x,B1/B8/B7,{4}B3/B4/B5,{8}7x/3x,B2/B1/B8,B4/B5/B6,2x/8x,
B3/C/B7,4x/6x,1x/7x,B2/C/B6,{2}3xqq1[8:1]/5xpp7[8:1],
{8}2/8-4[8:1],2,3/8-6[8:1],3,8/5-2[8:1],5,,1,
8<5[8:1]*>3[8:1],8,{4}8-4[8:1],8,2/6,
{8}3x/5x,7,4/6,2,1/5,B1/C/B5,,7,
2x/6x,3,8/4,7,6/2,B6/C/B2,,1,
{4}5x/1xh[4:1],{24}6x,5,4,3,2,1,{8}8x/4x,B4/C/B8,,2x,
{4}7x/3x>8[8:1],5xw1b[8:1],{16}5b,Cf,,,,,,,{4}7p3[8:1]/3p7[8:1],
7/3<8[4:1],{8}1,1,,3,
5/3,7,4/6,2,{2}8-3[8:1]/3-8[8:1],
{4}6-8[8:1]/2-8[8:1],6/2v3-5[4:1],{8}5,5,,7,
8/4,2,1/6,5,{4}4/3-7[8:1]*-8[8:1],3b,
5<8[8:1]/1>4[8:1],1/5p4[4:1],{8}3,3,,1,
1/7,6,8/2,3,{2}7-4[8:1]/4-7[8:1],
{4}2-5[8:1]/6-1[8:1],6/2V84[4:1],{8}7,7,,5,
{4}6x/2b-5[8:1],2x/8b-3[8:1],8x/6b-2b[8:1],5b/6x,
{1}B7/B8/B1/B5/B4/B3,
E
