&title=千本桜
&artist=黒うさP
&first=0.0333
&des_6=テキサス & トモリン@皆伝
&lv_6=13+
&des=テキサス & トモリン@皆伝
&clock_count=4
&inote_6=(154){4},{1},{4},,,{16}3/4,
,,3/4,,,{8}4/5,{16}6/5,,,6/5,,,{8}5/4,
{16}2/3,,,3/4,,,{8}4/5,{4}7/6,1/8,
{16}1/2,,,3/8,,,{8}4/7,{16}8/7,,,6/1,,,{8}5/2,
{4}4/3-8[8:1],3/7-4[8:1],7/1w5[8:1],1,
{8}3/7,8,{16}2,1,2,1,{8}3/8,4,{16}6,5,6,5,
{8}4/7,8,{16}3,4,3,4,{8}2/5,{24}2,3,4,{8}5/8,7,
6/2,1,{16}7,8,7,8,{8}6/1,5,{16}3,4,3,4,
{8}2/5,1/6,7/8,1/2,{16}3,5,4,6,{8}3,7,
6/2,1/5,{16}8,7,8,7,{8}6/1,5/2,{16}3,4,3,4,
{8}5/2,7/4,{16}6,5,7,4,{8}8/3,{24}7,6,5,{8}4/1,2,
{16}3,4,2,5,1,6,8,7,{8}5x/6x,4/7,3/8,1/2,
{16}3/8,,,6/1,,,{8}4/5,{4}2/7,C,
3h[4:1],4h[16:3],{16}3,4,{8}2,1,8,
{4}7h[4:1],{16}8h[16:3],,,7,{8}7,6,5,4,
{4}3h[4:1],4h[16:3],{8}3,2,1,8,
{4}7-3[8:1],7/1-5[8:1],1w5[8:1],1,
{16}6h[4:1],,,5,{4}5h[16:3],{16}6,5,{8}7,8,1,
{16}2h[4:1],,,1,{8}1h[8:1],2,2,3,4,5,
{16}6h[4:1],,,5,{4}5h[8:1],{8}6,7,8,1,
{4}E3,E7,E1,E5,
2>5[8:1],2/7>2[8:1],7/4<7[8:1],4/1>4[8:1],
{8}1/8<5[8:1],7,8/1-5[8:1],3,{4}1/8-4[8:1],8/1-6[8:1],
{8}1/7-4[8:1],8,{4}7/2-5[8:1],2/8-3[8:1],8/4-7[8:1],
4/8-4[8:1],8<4[4:1]*>4[4:1],{2}8,
{4}7<4[8:1],7/2<7[8:1],2/5>2[8:1],5/8<5[8:1],
{8}8/1>4[8:1],2h[16:1],1/8-4[8:1],6,{4}8/1-5[8:1],{8}8/1,7,
5/6,5/6,,3/4,{4}3/4,1/2,
7bqq4[8:3]/8bpp3[8:3],,,2h[8:1]/6h[8:1],
{8}4/5,{16}3,1,,8,{8}6,{2}1-6b[8:1]/5-2b[8:1],
{8}3/7,4/8,1/5,2/6,{4}3b/7b,{8}4,5,
6/3,{16}6,8,,1,{8}3,{2}8-3b[8:1]/4-7b[8:1],
{8}6/2,5/1,{16}8/4,7/3,6/2,1/5,{4}4b/8b,{8}5,4,
3/6,{16}1/2,3,,8/7,{8}6,{2}1<6b[8:1]/5>2b[8:1],
{8}3/7,1/5,6/8,3/4,{4}2b/6b,{8}8-4[8:1],4,
{4}5-1[8:1],6-2[8:1],7-3[8:1],8-4[8:1],
{8}8/1-5[8:1],2,1/8w4[8:1],7,{4}8,6b/2b,
{16}1<6[8:1],2,,2,{8}1,4,{16}4p8[8:1],5,,5,{8}4,6,
1/7-4[8:1],6,7/2-5-1[4:1],1,{4}5b,{8}6,7/1,
{16}8>3[8:1],7,,7,{8}8,6,{16}5q1[8:1],4,,4,{8}5,3,
8/2-5[8:1],3,2/7>5[4:1],6,{4}Cf,{8}1x,2x,
{16}4<7[8:1],3,,3,{8}4,2,{16}1q5[8:1],8,,8,{8}1,7,
4/6-1[8:1],7,6/3-7[8:1]*-8[8:1],4,{4}3b,{8}7bx/8b,1b/6b,
{4}5b-1[8:1],2b-6[8:1],3b-7[8:1],4b-8[8:1],
{8}4/5-1[8:1],6,5/4w8[8:1],3,{64}4b,Cf,{4},{16},,,{32},{2}2>5[2:1],
B2,
7<4[2:1],B7,
2q5[2:1],C,
7p4[2:1],C,
{4}E2/C,E1,E8,E7,
E6/C,E5,E4,E3,
E1/B8/C,E7/B6,E5/B4/C,E3/B2,
{8}7b/8b,6,7b-3[8:1]/8b-4[8:1],1,{32}7b/8b/Cf,,,,,,,,2h[8:1]/6h[8:1],,,,,,,,{8}2b/5b,
{16}4,3,{8}5-2[8:1],4/6,{4}5b/7-4[8:1],{8}7b,1,
2bx/5<8[8:1],6,2/5bx-1[8:1]*-2[8:1],4,{48}5b,,,,,,,,,,,,{8}2x/1x,8/3,
7b,{16}5,6,{8}4-7[8:1],3/5,{4}4b/2-5[8:1],{8}2b,6,
7bx/4>1[8:1],3,4bx/8-4[8:1]b*-3[8:1],7,{48}8b,,,,,,,,,,,,{8}4x/3x,4/5,
6b,{16}6,8,,1,3,,{4}2b-6[8:1]/4-8[8:1]b,{8},,
1/7b,3/4,2/1b-6[8:1]*-5[8:1],4/7,{24}1b,,,,,,{8}5x/6x,3x/4x,
{4}1x-5[8:1]/6x<1[8:1],{64}6b/1b,,,,,,,,,,,,,,,,{4}4x>1[8:1]/8x-4[8:1],{64}4b/8b,,,,,,,,,,,,,,,,{8}8b/7,
6b/5,4/3b,2/1b,{32}8b/Cf,7,6,5,4,3,2,1,8,7,6,5,4,3,2,1,
{8}8bx,1x/7b,{16}2,4,3,4,{8}1b,2b/8,{16}7,5,6,5,
{8}8b,1/7b,{16}2,5,3,6,{8}4,{24}4bx/8bx-4[8:1],7/3,6/2,{8}5b/1b,8b,
6b,4/8b,{16}3,4,3,2,{8}3b,1b/5,{16}6,5,6,7,
{8}6b,2b/5,7b/3,8/4b,{32}1b/5,2,3,4,5,6,7,8,{8}1/5b,3b/7,
1b,2b/8,{16}7,5,6,5,{8}8b,7b/1,{16}2,4,3,4,
{8}1b,8b/2,{16}7,4,6,3,{8}5,{24}5bx/1bx-5[8:1],2/6,3/7,{8}4b/8b,1b,
{16}4bx,4x,3,5,2,6,1,7,{8}8,2bx/6bx,7/3,4/8,
{16}1b/5b,{32},,,,5b/1b,4/8,{8}3/7,1/5,{4}8-3[8:1]/4-7[8:1],4b/8b,
{16}4b/8b,{32},,,,5b/1b,6/2,{8}7/3,1/5,{4}7qq5[8:1]/3qq1[8:1],{64}7b/3b,Cf,{32}E5/E1,
E
