&title=ひとつのハートで
&artist=三重野 瞳
&first=0
&des=小救星小渡
&lv_5=13
&inote_5=(134.87)
{1},
{2},B4/B5/E5h[8:1],2-5[8:1],7-4[8:1],
{8}1h[4:1],,B5,,7,8,B4,,8h[4:1],,B4,,2,1,B5,,
{8}6h[4:1],,B3,,3,4,B8,,3^6[8:1],,8^3[8:1],,5^8[8:1],,C,,
{8}1-3[8:1]/8-2[8:1],,1/8-3-5[4:1],,6,7,8,,
{8}8-6[8:1]/1-7[8:1],,8/1-6-4[4:1],,3,2,1,,
{4}1-6[8:1],5-2[8:1],8-4[8:1],B8,
{8}8-2[8:1]/2^4[8:1],,28,,1-7[8:1]/7^5[8:1],2,71,,
{8}1-5[8:1],,B1,,8,7,2,6b/1b,,
{16}2,8,{4}2h[4:1],8-4[8:1],18,
{4}5h[8:1]/3h[8:1],5h[8:1]/2h[8:1],5h[8:1]/1-4[8:1],4/1,
{4}4h[8:1]/6h[8:1],4h[8:1]/7h[8:1],4h[8:1]/8-5[8:1],5/8,
{4}6h[8:1]/4h[8:1],6h[8:1]/2h[8:1],6h[8:1]/8-4[8:1],48,
{4}3h[8:1]/5h[8:1],3h[8:1]/7h[8:1],3h[8:1]/1-5[8:1],51,
{4}4h[8:1]/6h[8:1],5h[8:1]/2h[8:1],3h[8:1]/8-3[8:1],2/8,
{4}5h[8:1]/3h[8:1],4h[8:1]/7h[8:1],6h[8:1]/1-6[8:1],7/1,
{4}8-3[8:1]/1,8/2-5[8:1],2/4-8[8:1]*-7[8:1],4,
{4}1-6[8:1]/8,1/7-4[8:1],7/5-1[8:1]*-2[8:1],5,
{8}3-5[8:1]/7,2,6-3[8:1],7,2-6[8:1],1,2/8>7[2:1],,
{8}48,,1,2,3^8[8:1]*^6[8:1],,3,,
{8}6-4[8:1]/2,7,3-6[8:1],2,7-3[8:1],8,7/1<2[2:1],,
{8}51,,8,7,6-1[8:1]*-3[8:1],,6,,
{8}2-4[8:1]/6,1,6-2[8:1],7,1-5[8:1],8,1/7>6[2:1],,
{8}37,,8,1,2w6[8:1],,2,,
{8}7-5[8:1]/3,8,3-7[8:1],2,8-4[8:1],1,8/2<3[2:1],,
{8}62,,8,,7,62,2,37,
{8}8pp5[4:1],,,4,4-8[8:1]*-1[8:1],,4b,,
{8}12,3,45,6,8^3[8:1]/7^4[8:1],,87,,
{8}1qq4[4:1],,,5,5-1[8:1]*-8[8:1],,5b,,
{8}87,6,54,3,12,83,72,61,
{8}8/7-4[8:1],1,2,,1/2-5[8:1],8,7,,
{8}1^6[8:1]/7,2,3,,8^3[8:1]/2,7,6,,
{8}8-4[8:1],7-2[8:1],8,7,1-5[8:1],2-7[8:1],1,2,
{8}6,8,16,2,7-3[8:1],2-6[8:1],7,2,,
{8}8b-4[8:1],,,1b-6[8:1],,1b/2b,,
{8}3/4-8[8:1],,4/2-5[8:1],3,8-4[8:1],7,18,2,
{8}5-1[8:1],6,5-2[8:1],7,5,B7/B8,2,B5/B4,
{8}1^4[8:1],8,7,5-2[8:1],6,7,8,17,
{4}6b-2[8:1],6/5b-1[8:1],5/4b-8[8:1],24,
{8}7x/6x-1[8:1],,7-4[8:1],,2^7[8:1]/7,2,3,4,
{8}6x/2x-5[8:1],,1-6[8:1],,1-4[8:1],2,1,8,
{4}3b-1[8:1]/7b-1[8:1],3b-5[8:1]/7b-5[8:1],7bxv2[8:1]/3bxv8[8:1],,
{8}5/2^5[8:1],1,8,8,4/7^4[8:1],8,1,,
{8}6/5-1[8:1],,5/7-4[8:1],6,1-5[8:1],2,81,7,
{8}4-8[8:1],3,4-7[8:1],2,4,B2/B1,7,B4/B5,
{8}8-5[8:1],1,2,4^7[8:1],3,2,1,82,
{4}3b-7[8:1],3/4b-8[8:1],4/5b-1[8:1],75,
{8}2x/3x-8[8:1],,2-5[8:1],,7^2[8:1]/2,7,6,5,
{8}3x/7x-4[8:1],,8^3[8:1],,8^5[8:1],7,8,1,
{4}2b-5[8:1]/6b-3[8:1],2b-7[8:1]/6b-1[8:1],6bx^4[8:1]/2bx^4[8:1],,
{8}4/7^4[8:1],8,1,1,5/2^5[8:1],1,8,8,
{1}2-6V41b[2:3]/6-2V47[2:3],
