&title=午夜の待ち合わせ
&artist=Hello Sleepwalkers
&first=0
&des=15734 repeat three times
&lv_5=13+
&des_5=
&inote_5=(189)
{128},
{64},
{32},,,,,,,,,,,,,,,,,,,,,,,,,,,,,,,,,,,,
{8}
8h[4:1]/4,,3,2,15,6,7,8/4h[8:3],
,,7,6,5/1,2,3-8[8:1],,
7h[4:1]/3,,1,2,38,7>5[32:11],5,3/7,,
{16},,1-5[8:1],,2-6[8:1],,1,,2,,8,,,,
{8}
4h[4:1],,7,6,51,2,3,4/8h[8:3],
,,3,2,51,6,7v4[8:1],,
3h[4:1]/7,,5,6,73,2<4[32:11],8,6/2,,
{16},,8-4[8:1],,7V53[6:1],,8,,7,,1,,,,
2h[8:6]/5,,,,6,,,,7,,,,8,,17,,
,,17,,8h[8:6],,,,2,,,,3,,,,
4h[8:6],,,,8,,,,7,,,,6,,57,,
,,57,,6h[8:4],,,,4,,,,3,,,,
1/5h[8:6],,,,2,,,,3,,,,3,,24,,
,,24,,3h[8:6],,,,5,,,,6,,,,
7h[8:6],,,,3,,,,4,,,,5,,46,,
,,35,,,,24,,1v3[6:1]/3,,,,,,,,
4-6[8:1],,,,2-4[8:1],,,,8-6[8:1],,,,5,,5h[4:1],,
,,8^5[8:1],,,,8,,4,3,2,1,8/4-7[8:1],,,,
48,,1-5[8:1],,,,16,,7-3[8:1],,,,73,,1^4[6:1],,
,,5,,6,,7,,8-4[8:1],1,7,2,8,,,,
8-2[8:1],,,,6-8[8:1],,,,4-2[8:1],,,,1,,1h[4:1],,
,,4^1[8:1],,,,4,,8,7,6,5,4/8-3[8:1],,,,
48,,5-1[8:1],,,,52,,3-7[8:1],,,,37,,5^8[32:7],,,,1,,2,,3,,84,3,2,1,7,7,8,6,
{4}1h[1:1],5h[128:1],6h[128:1],7h[128:1],
8h[1:1],4h[128:1],3h[128:1],2h[128:1],
1-5[16:8],5h[128:1],6h[128:1],7h[128:1],
8-4[16:8],4h[128:1],3h[128:1],2h[128:1],
{16}
1,,3,4,2,,6,5,7,,2,1,3,,48,,
6,5,6,5,7,4,7,4,8,1,7,2,6,3,5,4,
8-4[4:3],,,,,,,,,,,,,,,,2h[16:1],,2h[16:1],,2h[16:1],,2h[16:1],,2h[16:2],,,,
{32}8bp4[10:1]/2,3,4,5,,,,,
{32}8b/4b,3,2,1,,,,,,8b<5[8:1]/5b,1,2,3,,,,{16}8-4[8:1],,,,8,,5<2[4:1],,
,,3,,4,,5h[4:1],,,,1,,8,,7,,
6/8^3[32:5],,,,5,,5q1[32:5],,,,3pp2[2:1],,,,8h[8:1],,
,,7h[8:1],,,,6,,{32}6,5,4,3,2,1,8,7,6/1bq5[10:1],,,,,,,,{32}1b/5b,6,7,8,,,,,,1b>4[8:1]/4b,8,7,6,,,,{16}1-5[8:1],,,,1,,4>7[4:1],,
,,6,,5,,4h[4:1],,,,8,,1,,2,,
2-5[8:1],,8-4[8:1],,2,,8w4[8:1],,,,8,,,,{32}8b,7,6h[16:3],,
,,,,1b,2,3h[16:3],,,,,,7b,6,,,2b,3,4,5,6,7,8,1,2/7b-4[32:3],,,,,,,,
{32}7b/4b-8[32:3],3,2,1,,,,,8b^5[8:1]/4,1,2,3,,,,,{16}8/2V48[16:3],,,,2,,5<1[4:1],,
,,1,,2,,3h[4:1],,,,1-5[32:5],,3,,1,,2^5[32:5],,,,6,,6^1[64:7],,,,5qq2[2:1],,,,1h[8:1],,
,,8h[8:1],,,,7,,{32}7,6,5,4,3,2,1,8,2b/7-3[32:3]*-5[32:3],,,,,,,,
7b,,,,,,,,2b-4[32:3]*-6[32:3],,,,,,,,{16}2b,,,,57,,1-3[32:3]/8-4[32:3],,
,,1-5[32:3]/8-6[32:3],,,,18,,,,74,,36,,25,,
1h[16:2],,,2h[8:1]/8h[8:1],,,3-5[8:1]/7-1[8:1],,,,3v8[8:1]/7-4[8:1],,,,3b/7b,,
,,15,,26,,37,,48,,8,1,7,2,6,3,
5^8[8:1],,5,,2-6[8:1],,2,,1,,8^3[8:1],,7,,6q2[9:1]*v3[9:1],,
,,6,,,,38,,3h[8:1]/8h[8:1],,,,75,,64,,3p7[8:1],,3,,5q1[8:1],,5,,1,,2,,3,,1-5[64:7]/4-8[64:7],,
,,4/1^4[8:1],,,,15,,7,,7h[4:1],,,,{32}3b,2,1,8,
,,,,{16},,56,,34,,2-5[8:1],,1,,2,,8-3[8:1],,
,,8/1-6[8:1],,,,18,,7^4[8:1],,8,,7,,1h[8:2],,
,,3,,4/2q5[32:12],,5,,6,,7,,8,,1V75[32:7],,
,,1,,3^8[7:1],,,,3,,4,5,6,7,8,1,
2b-6[8:1]/4,,,,4,,4-8[8:1],,,,5-1[8:1],,,,2h[4:1],,
,,7-4[8:1],,,,2,,1-5[8:1],,,,6,,7h[4:1],,
,,5^8[8:1],,4,,3,,2-6[8:1],,1-5[8:1],,2,,1^4[8:1],,
,,1,,5,,6,,7,,86,,1bw5[8:1]/5b,,,,
1,,,,7-5[8:1],,3-1[8:1],,7b-3[8:1],,3b,,7b,,1bw5[64:7],,
,,1,,,,2^7[8:1]/6h[4:1],,,,2,,{32}6b,5,4,3,2,1,8,7,
{16}6b,,3,4,3,,2/6h[8:1],,5h[8:1],,4h[8:1],,3,,2/6,,
,,3,4,3,,26,,34,,25,,16,,,,27,,3,4,3,,27,,12,,34,,56,,7/8,,,,
6,5,7-3[8:1],,8,,7/1-5[32:3],,2,,1b/8,,,,
65,,6h[2:1]/5,,4,,3,,2,,1,,8,,78,,,,78,,6-4[8:1],,5,,6-1[8:1],,,,,,,,
78,,78,,6h/1h,,7h/4h,,2h/5h,,3-7[10:1]*-7[10:1]/8h,,5h/1h,,3b/7b,
