&title=路地裏ユニバース
&artist=蝶々P
&first=0
&des=Caramelo.
&lv_5=13+
&inote_5=(84)
{1},{4}7-5[16:1],57,2-4[16:1],42,6-4[16:1],46,3-5[16:1],53,
6-8[16:1],86,3-1[16:1],13,5-3[16:1],53,{24}4-6[16:1],,2,8,1,,46,,8b,,6,5,
7-5[16:1],,2,8,1,,75,,3,,15,,2-4[16:1],,7,1,8,,24,,7,,7,5,
6-4[16:1],,2,8,1,,46,,1,,26,,3-5[16:1],,7,1,8,,53,,7,,7,5,
6-8[16:1],,3,5,4,,86,,2,,84,,3-1[16:1],,6,4,5,,13,,6,,6,4,
5-3[16:1],,7,1,8,,35,,1,,37,,4-6[16:1],,2,8,1,,64,,8,1,8,1,
{12}7h[4:1],,5,4h[4:1],,5,6h[6:1],,3,24,,2,
2h[12:1],3h[12:1],4h[12:1],5h[6:1],7,1,3-8[12:1]/7-4[12:1],,,,,7,
7h[4:1],,5,4h[4:1],,5,6h[6:1],,3,24,,1,
1h[12:1],3h[12:1],5h[12:1],7h[6:1],1,3,4q5[6:1]/6pp5[6:1],,,,,,
{12}2h[4:1],,4,5h[4:1],,4,3h[6:1],,6,75,,7,
7h[12:1],6h[12:1],5h[12:1],4h[6:1],2,8,6-3[12:1]/2-7[12:1],,,,,2,
2h[4:1],,4,5h[4:1],,4,3h[6:1],,6,75,,8,
8h[12:1],6h[12:1],4h[12:1],2h[6:1],8,6,5<8[12:1]/3>8[12:1],,,,,8,
1h[6:1]/7h[6:1],,,8h[6:1]/2h[6:1],,,6,5,4,3,,,
{24}8b<5[16:1],,3>1[16:1],4,1,,8-3-5[8:1],,3,,4h[12:1],,
8qq1[6:1],,6,7,8,,2h[6:1],,,,,,
3-5[16:1]/8-5[16:1],,2,1,2,,3/8q3[6:1],,,,6,,8/7h[6:1],,,,,,74,,65,,34,,
1b>4[16:1]/5b,,6-4[16:1],4,7,,1-6<8[8:1],,6,,2h[12:1],,
1pp5[6:1],,3,2,1,,8h[6:1],,,,,,
4-1[16:1]/7-1[16:1],,6,5,6,,7/4q7[6:1],,,,3,,4/2h[6:1],,,,,,8,2,6,4,7,3,
5b,,2,4,3h[12:1],,7h[12:1],,5,,46,,2h[12:1],,5,4,6,,75,,24,,6,5,
7h[12:1],,3,4,2h[12:1],,8h[12:1],,6,,37,,46,,3,4,2h[12:1],,8,6,7h[12:1],,3,5,
1b,,7,5,6h[12:1],,2h[12:1],,4,,53,,7h[12:1],,4,5,3,,24,,75,,3,4,
2h[12:1],,6,5,7h[12:1],,1h[12:1],,3,,62,,84,,6,5,7h[12:1],,1,5,3,8,4,6,
1b>4[16:1],,6<8[16:1],5,8,,1-6-4[8:1],,6,,5h[12:1],,
1pp8[6:1],,3,2,1,,7h[6:1],,,,,,
6-4[16:1]/1-4[16:1],,7,8,7,,6/1p6[6:1],,,,3,,1/2h[6:1],,,,,,25,,34,,65,,
8b<5[16:1]/4b,,3-5[16:1],5,2,,8-3>1[8:1],,3,,7h[12:1],,
8qq4[6:1],,6,7,8,,1h[6:1],,,,,,
5-8[16:1]/2-8[16:1],,3,4,3,,2/5p2[6:1],,,,6,,5/7h[6:1],,,,,,3,5,1,7,2,6,
8b-5[16:1],,2,1,3,,7/8-3[16:1],,6,5,7,,2/8-6-3-1-5[16:3],,1,5,1,,86,,7,,8,,
13,,2,6,5,,8p4[12:1],3,4>5[6:1],,26,,8/7h[4:1],,,,,,,,38,,2,4,
1b-4[16:1],,7,8,6,,2/1-6[16:1],,3,4,2,,7/1-3-6-8-4[16:3],,8,4,8,,13,,2,,1,,
86,,7,3,5,,1w5[12:1],6,4<3[6:1],,28,,1b,,,,,,6b,,5,4,6,3,
8b-4[16:1],,,,17,,8bw4[16:1],,,,26,,8b,,,7,2,8,1,{48},27,{24}36,,4,5,
3-7[16:1],,1,8,2,,36,,6,5,4,,2-6[16:1],1,3,5,4,,72,,7,8,1,,
4-8[16:1],5,2,1,3,,47,,7,6,5,,7,8,6,2,1,3,7,8,6,4,5,3,
6-2[16:1],,8,1,7,,36,,3,4,5,,7-3[16:1],8,6,4,5,,27,,2,1,8,,
5-1[16:1],4,7,8,6,,52,,2,3,4,,2,8,1,7,2,,65,,34,,18,,
{12}2b/7b,,5,6h[6:1]/4,,3,2h[6:1]/4-8[16:1],,5,6h[6:1]/4,,
8,1-5[16:1]/7,2,8,7-3[16:1]/1,,6,5-8[16:1]*-2[16:1],,,,,1,
2h[6:1]/8,,7,6h[6:1]/8,,1,2h[6:1]/8-4[16:1],,7,6h[6:1]/8,,
4,3-7[16:1]/5,2,4,5-1[16:1]/3,,6,7-4[16:1]*-2[16:1],,,,,3,
3h[6:1],,5,64,,4,4h[6:1],,6,53,,3,
3h[12:1],4h[12:1],5h[12:1],6-3[16:1],,2,2-7[16:1],,,,,6,
6h[6:1],,4,35,,5,5h[6:1],,3,46,,6,
6h[12:1],5h[12:1],4h[12:1],3h[12:1],4h[12:1],5h[12:1],6,5,4,3b,
