&title=ゴールデンタイムラバー (志国一路・荒塚オガミ・熊谷重吾 cover)
&artist=スキマスイッチ
&first=0
&des=ハガレンけものフレンズ
&lv_5=13+
&inote_5=(125)
{1},,
{16},,,,,,,,,,,,,,{24}4,5,3,
{16}4b,,,,25,,2,,24,,2,,2-8[8:1]/5,,2,,
{16}2/4h[4:1],,,,1,,1,,15,,1,,1^4[8:1]/4,,1,,
{16}1/5h[4:1],,,,2,,2,,24,,2,,2-8[8:1]/5,,2,,
{16}2/4h[4:1],,,,1-5[8:1],,5,,7,,,,{32}6,5,6,5,6,5,6,5,
{16}6b,,,,74,,7,,75,,7,,7-1[8:1]/4,,7,,
{16}7/5h[4:1],,,,8,,8,,84,,8,,8^5[8:1]/5,,8,,
{16}8/4h[4:1],,,,7,,7,,75,,7,,7-1[8:1]/4,,7,,
{16}5-8[8:1]/7,,4-1[8:1],,5pp4[4:1],,4,,,,,,,,2,,
{16}25,,3,4,,4,1,,28,,3,4,3,5,2,,
{16}38,,2,1,2,,3,4,3,5,2,,8,1,8,,
{16}26,,3,5,,5,2,,7,8,6,,2,1,3,,
{16}48,,7,1,,1,7,2,6,,4,,3b/5b,,,,
{16}74,,6,5,,5,8,,71,,6,5,6,4,7,,
{16}61,,7,8,7,,6,5,6,4,7,,1,8,1,,
{16}73,,6,4,,4,7,,2,1,3,,7,8,6,,
{16}15,,2,8,2,,3,4,,6,5,,18,2b/7b,,,
{16}3^6[8:1],,,,6,,7-4[8:1],,,,4,,3^6[8:1],,,,
{16}7^2[8:1],,,,5,,5-8[8:1],,,,4,,4-1[8:1],,,,
{16}8-4[8:1],,,,4,,3-1[8:1],,,,1,,8-4[8:1],,,,
{16}1-5[8:1],,,,5qq1[8:3],,6,,7h[4:1],,,,,,,,
{16}6^3[8:1],,,,3,,2-5[8:1],,,,5,,6^3[8:1],,,,
{16}2^7[8:1],,,,4,,4-1[8:1],,,,5,,5-8[8:1],,,,
{16}1-5[8:1],,,,5,,6-8[8:1],,,,8,,1-5[8:1],,,,
{16}1^6[8:1]/8^3[8:1],,,,,,,,4,5,4,,2b/7b,,,,
{16}1,,3,3,4,,2,8,,8,2,7,3,6,4,,
{16}8,,2,2,4,,1,6,,6,1,,2,4,3,,
{16}8,,6,6,5,,7,1,,1,7,2,6,3,5,1,
{16}1,,26,,8,8,,37,,25,25,,7,7,6,,
{16}4b/8b-4[8:1],,8,,4,,3,,2^7[8:1],,2,,4,,5,,
{16}6-4[8:1],,6,,8pp3[8:3],,8,,7-4[8:1],,7,,,,,,
{16}2-6[8:1],,2,,6,,7,,8^3[8:1],,8,,3,,4,,
{16}5-2[8:1],,5,,8qq3[8:3],,8,,4-2[8:1],,4,,,,,,
{16}5/1-5[8:1],,1,,5,,6,,7^2[8:1],,7,,5,,4,,
{16}3-5[8:1],,3,,1qq6[8:3],,1,,2-5[8:1],,2,,,,,,
{16}7-3[8:1],,7,,3,,2,,1^6[8:1],,1,,6,,5h[4:1],,
{16}8,,4h[4:1],,8,,6h[4:1],,8,,5,,7,2,7,,
{16}1b/8b,,3,3,4,,5,5,4,6,6,,4,,3,3,
{16}4,,6,6,5,,4,4,5,3,3,,5,5,4,,
{16}65,,4,4,5,,3,3,4,5,5,,46,,2b-4[8:1]/8b-4[8:1],,
{16},,8bV26[8:1]/2b-6[8:1],,,,2b/8b,,,,37,,37,,2,2,
{16}1b,,,,4,,3,3,4,6,6,,4,,5,5,
{16}4,,6,6,4,,5,5,4,3,3,,4,,6,6,
{16}5,,3,,5,,6,6,5,3,3,,5,,4bqq6[4:1]/6b,,
{16},,8,,8h[4:1],,,,{32}6,5,4,3,{16}1,1,2,8,3,7,
{16}4qq5[4:1]/6,,12,,4,,,,6pp2[4:1],,78,,6,,,,
{16}4-1[8:1],,4,,8-4[8:1],,8,,5-8[8:1],,5,,6b,,,,
{16}2qq6[4:1],,17,,2,,,,4qq5[4:1],,53,,4,,,,
{16}1^6[8:1],,1,,5-1[8:1],,5,,2^5[8:1],,2,,8w4[8:1],,8,,
{16},,,,17,,2,4,3,5,4,,3/8<4[8:1],,2,2,
{16}8,,1,,28,,7,5,6,4,5,,6/1>5[8:1],,7,7,
{16}1,,8,,17,,2,4,3,5,4,,38,,2-6[8:1]/6h[4:1],,
{16},,2,,8,1,2h[16:3]/7,,,8,8,8,1,7,2,6,
{16}5pp4[4:1]/3,,87,,5,,,,3qq7[4:1],,21,,3,,,,
{16}5-8[8:1],,5,,1-5[8:1],,1,,4-1[8:1],,4,,3b,,,,
{16}7pp3[4:1],,82,,7,,,,5pp4[4:1],,46,,5,,,,
{16}3^8[8:1],,3,,{24}7,6,5,{16}4,,1,1,8,2,7p3[8:1],3,6,4,
{16}7,,2,,1/5h[8:1],,8,4,1,4,2,,2q6[8:1]/5,,7,7,
{16}2,,7,,8/4h[8:1],,1,5,8,5,7,,7p3[8:1]/4,,2,2,
{16}7,,2,,1/5h[8:1],,8,4,1,4,2,,{32}3b,4,{16}3,5,2,
{16}6,1,78,,{24}7,5,6,2,4,3,{16}1,,2b/8b,,,3,4,4,
{16}5<3[8:5]/3,,,,,,,,2,,3,,4,,5p4[8:5],,
{16},,,,,,8,,,,6,,6,,3b/5h[4:1],,
{16},,{32}7,8,1,2,{16}3,,,,7>3[8:1]/5,,14,,5,,,,
{16}4-6[8:1]/2,,1,,4-7[8:1]/2,,1,,4-8[8:1]/2,,1,,42,,1,,
{16}27,,3,3,4,,7,8,6,1,87,,1-5[8:1],,4,4,
{16}1,,6,6,5,,2,1,3,8,12,,8-4[8:1],,5,5,
{16}8,,3,3,4,,7,8,6,1,87,,3,,1b/5b,,
{16},6,65,,12,,4b/8b,,{24}3,7,2,6,1,5,8,4,1,5,2,6,
{16}3>7[8:1],,24,,1,,,,4>6[4:1],,35,,1,,,,
{16}4-7[8:1],,3,,4-1[8:1]/6,,5,,4w8[8:1]/2,,3,,4b,,,,
{16}2<6[8:1]/4,,65,,4,,,,2<6[8:1]/4,,85,,4,,,,
{16}5-3[8:1]/7,,8,,5-2[8:1]/7,,8,,5-1[8:1]/7,,8,,57,,8,,
{16}27,,6,6,1,7,4,8,2,5,34,,2/6-1[8:1],,1,1,
{16}6,,3,3,8,2,5,1,7,4,65,,7/3-8[8:1],,8,8,
{16}3,,6,6,1,7,4,8,2,5,1,7,{24}2,6,2,5,3,5,
{16}4b,,,,1s5[8:1]/8z4[8:1],,4/5<4[3:1],,,,,,,,,,
{12}8,65,57,1,34,24,{24}5,4,6,{16}5,5,{24}6,4,7,3,8,2,
{16}3bp3[2:1]/7bq7[2:1],,,,,,,,,,,,,,,,
{16}4>5[2:1],,,,5,,,,,,4,,4,,,,
{16}6pp3[2:1],,,,4,,,,,,5,,5,,,,
{16}2V86[4:1],,,,6V42[4:1],,,,,,8,,8,,,,
{16}17,,2,4,3,,12,,8,5,6,,47,,1,1,
{16}82,,7,5,6,,87,,1,4,3,,52,,8,8,
{16}17,,2,4,3,,12,,8,5,6,,47,,1h[4:1]/5-8[8:1],,
{16},,5b,,{32}1,2,3,4,1,8,7,6,{24}2,8,2,8,2,8,{16}37,37,37,37,
{16}2bpp1[4:11]/6bpp1[4:11],,,,,,,,,,,,,,,,
{16},,,,,,,,,,,,,,,,
{16},,,,,,,,,,,,,,,,
E
