&title=I
&artist=黒魔
&first=0
&des=moying
&lv_5=14+
&inote_5=(225){1},,
{32}1b/8b,27,36,4/5,{8},5,6,7h[4:1],,5,4,{16}6,5,6,,{8}4,5,3xh[16:1],3xh[16:1],4h,4h,
{8}2h[4:1],,5,6,7h[4:1],,5,4,{16}6,5,6,,{8}4,5,3xh[16:1],3xh[16:1],4h,4h,
{8}E4,E5,E6,
B2,C,B7,
A3,A4,A5,A6,
B1,E7,B3,A5,E2,C,
4x,5,6,
3,4,5,
3,4,5,6,
2,4,5,3,7,5,
{8}6bh[4:1]/4b,,4,3,2h[4:1],,4,5,{16}3,4,3,,{8}5,4,6xh[16:1],6xh[16:1],5h,4h,
{8}7h[4:1],,4,3,2h[4:1],,4,5,{16}3,4,3,,{8}5,4,6xh[16:1],6xh[16:1],5h,4h,
{8}7,{16}5,6,{8}5,7,4h[16:1],4h[16:1],5,5,
{8}2,{16}4,3,{8}4,2,5h[16:1],5h[16:1],4,4,
{16}2b,1,2,1,2,,7b,8,7,8,7,,2b,4,3,4,2,,7b,8,6q3b[4:1],8,7,,{2},
{8}1b-4-6[4:1],,6,7>3[4:1],,4,5-2-8[4:1],,8,7p5[8:5],,{8}C,{2},
{8}8bx>5[4:1],,5,6-1-3[4:1],,4,5qq5[4:1],,1,1,,,Ch[4:1],,,,
{8}8b-5-3[4:1],,3,2<6[4:1],,5,4-7-1[4:1],,1,2q4[8:5],,{8}C,{2},
{8}1bx<4[4:1],,4,3-8[8:1],,5,4,,
{16}1b,1b,1b,1b,1b,1b,1b,1b,{2}1bx-5[8:1],
{4}7h[4:1],1h[4:1],5h[4:1],3h[4:1],
{4}4h[4:1],6h[4:1],7h[4:1],5h[4:1],
{4}6^3[4:1],3^8[4:1],8^5[4:1],5-1[4:1],
{4}1^4[4:1],4-8[4:1],8,6,
{4}1h[4:1],7h[4:1],3h[4:1],4h[4:1],
{4}6h[4:1],8h[4:1],1h[4:1],3h[4:1],
{8}6,5,4h[4:1],,5,4,3,,
{8}2^7[8:1],3,4,5,6,7,8,,
{4}1-5[8:1],4-8[8:1],2-6[8:1],6,
{8}1-5[8:1],2,3xpp3[4:1],,{4}6,7,
{4}6^3[4:1],3q7[4:1],7pp1[4:1],1,
{4}3h[4:1],4h[4:1],6h[4:1],5h[4:1],
{4}8-4[8:1],6-2[8:1],5-1[8:1],1,
{8}8-4[8:1],7,6qq6[4:1],,{4}3,2,
{8}3,4,35,,6,5,46,,
{24}2x,3x,4x,{8}5x^2[8:1],,{24}1x,8x,7x,{8}6x-2[8:1],,1b,1bh[8:3],,,
{16}8,2,7,3,6,,45,,{8}2b/7b,,
{16}1x-5[8:1],8,1,,{8},,{16}7-4[8:1],8,7,,{8},,
{16}2-6[8:1],1,2,,{8},,{16}5-1[8:1],4,5,,{8},,
{8}3h[16:1],3h[16:1],4,5,4h[16:1]/6h[16:1],4h[16:1]/6h[16:1],37,,
{16}7-3[8:1],8,7,,{8},,{16}1-4[8:1],8,1,,{8},,
{16}6^3[8:1],5,6,,{8},,1,,37,{16}8,4,
{16}7,5,6,,6,,1,5,2,4,3,,3,,
{16}6,4,5x,5x,6x,4x,{6}5xh[12:1],4h[12:1]/7h[12:1],2b/6b,{4},
{16}8-4[8:1],1,8,,{8}4,,{16}2-5[8:1],1,2,,{8}6,,
{16}7-3[8:1],8,7,,{8}3,,{16}4-8[8:1],5,4,,{8}8,,
{16}6^3[8:1],5,6,,4,,,,2q6[8:1],1,2,,6,,,,
{8}7h[16:1],7h[16:1],5,4,5h[16:1]/3h[16:1],5h[16:1]/3h[16:1],62,,
{8}5b-1[8:1],,{16}15,2,3-7[8:1],,,,83,7,6-2[8:1],,,,26,3,4-8[8:1],,,,48,7,6-2[8:1],,,,{4}1,
{8}13,4,5,6,57,46,35,24,
{16}1x,2,3,4,2x,3,4,5,3x,4,5,6,
{4}Ch[4:1],
{1}B1/B8`E1f`D1/A1/A8,,,,
2qq5[1:2],,6^1[1:1],4xh[1:1],
{1}5pp4[1:1],
{4},{8}1,1h[2:1],,,,3,,4^6[4:1]/2,,,,,4,5/6h[2:1],,,,
7q3[4:1],,,5^8[4:1],,,2^5[4:1],,,6q3[4:1],,,5-2-8[4:1],,,7^6-4[4:1],,,2^7[4:1],,,
5-1-3[4:1],,,4-8-6[4:1],,,5xw1b[2:1],,{1},
{2}E1/E2/B1/B2/A1/E3/D2/A2,C/B6/B5/E6/E5/E7/A7/D7/A4/E4/D4,
E3/B3/B2/A3,A7/E8/B7/C/B8/B3/B4,
{2}1h[4:1]/E5/D5/B4/A4/E4,7h[4:1]/B1/E1/E2/B2,
4h[4:1]/A6/E6/B6/E7/D7/D6,6h[4:1]/C/B1/B2/B3/E2/E3,
{4}2h[4:1]/C,{12}4,4,3,6h[4:1],,,5,7,3,5h[4:1],,,2,2,4,1h[4:1],,,8,2,6,
{12}2,4,3,6,4,5,1,3,2,8,6,7,
{1}1x-5[11.25#160:1]/Ch[1:1],,,,
(225)
{4},,,1-5b[8:1],
{4}1b,{12}8-4[8:1],4,6,{4}8x,5/3-7[8:1],
{4}34,{12}5-1[8:1],4,6,{4}5,4-8[8:1],
{4}34,{12}1^6[8:1],7,3,{4}1,4^1[8:1]*^7[8:1],
{4}4,{12}8x,8x,2x,{4}3-8[8:1]/7-4[8:1],37,
{4}1h[4:1]/5,{12}3x-7[8:1],2,4,{4}3,1-5[8:1],
{4}1/8h[4:1],{12}6x-2[8:1],7,5,{4}6,4,
{12}2x,4,3,6x,4,5,3x,3,3,5x,5,5,
{12}3x,4,2,7x,8,6,{4}1^4[8:1]/5x^8[8:1],1-5b[8:1]/5,
{4}1bx,{12}1x^6[8:1],5,3,{4}1-5[8:1],1/6q2[8:1]*-8-2b[8:1],
{4}6x,{12}4^7[8:1],5x,3,{4}4-8[8:1],4x/5x<1b[8:1]*-7-1[8:1],
{4}5x,{12}4^7[8:1],6x,2,{4}4x-8[8:1],3x>7b[8:1]*p6[8:1],
{4}3x,{12}5x,5x,3x,{4}2-5[8:1]/6-1[8:1],26,
{4}8h[4:1]/4,{12}6x-2[8:1],7,5,{4}6^3[8:1],8-4b[8:1],
{4}8/1h[4:1],{12}3x-7[8:1],2,4,{4}3^8[8:1],5,
{12}7x,5,6,4x,4,4,6x,6,6,3x,4,2,
8x,4,6,1-5b[8:1],5,3,{2}1b,
{12}2,4,3,6,4,5,
3,5,4,6,5,7,
3,4,2,8,1,7,
4,6,3,5,2,4,
1,8,2,7,5,6,
1,3,2,6,4,5,
2,4,3,7,8,6,{24}2,3,4,1,8,7,6,5,4h[24:4],{8},
{24}2bx,3x,2x,3x,2x,3x,2x,3x,2x,3x,2x,3x,{6}2bx,1x/4x,5x/8x,
{24}7b,6,7,6,7,6,7,6,7,6,7,6,{6}7b,85,41,
{12}3,2,1,6,7,8,3,4,2,6,5,7,
{4}2bx-6[8:1],2b/1b-5[8:1],1b/8b-4[8:1],8b/7b-3[8:1],
{1}7b/5bw1b[4:11],,,
Ch[4:1],
