&title=恋せよ乙女!
&artist=米倉千尋
&first=-0.25
&des=Rhythlame
&lv_5=13+
&des_5=Rhythlame
&inote_5=
(220){4},{8},,,,,,6,
{16}4,5,{8}4,6,1,1,1,1,
4/5,6,7,8/2,3,4/5,6,7/1,
5,2,{4}3/4-7[8:1],4>1[16:3],4,
{8}5,6,7,8/2,3,7/4,6,4,
5,1,{4}2>5[16:3]/6<1[16:3],{2}6/2,
{8}5,3,4,1/7,6,5/4,3,2/8,
4,7,{4}6/5-2[8:1],5<8[16:3],5,
2,{8}1/3,8,3,4/6,{4}3pp8[8:3]/5qq8[8:3],
{8},,,,,8x,1x,7x,
{1}6h[4:3]/2h[4:3],
{4}E7/A7/A6/D7f,B7/B6/B8/B5/Cf,B2/B3/B1/B4/Cf,A2/D3/A3/E3f,
7-4[8:1],2x,7-4[8:1],2x,
8-5[8:1],3x,1-6[8:1],4x,
8<3[8:3],{8}B8,B6,B4,B2,1x,8x,
7x,2,3,7,4/6,5v8[8:1]/3-8[8:1],,5/3,
,,{4}1-4[8:1],7,1-6[8:1],
3,1>4[8:1],7,1<5[4:1],
5>1[4:1],1V75[4:1],5V31[4:1],1,
{2}5h[4:3],{4}6,4,
2-5[8:1],7/2,2-5[8:1],7/2,
1-4[8:1],6/1,8-3[8:1],5/8,
1>6[8:3],{8}B1,B3,B5,B7,8x,1x,
2x,7,6,2,{4}5v8[16:3]/3v8[16:3],5/3,
1/7-4[8:1],7/2-5[8:1],2/8-4[8:1],8/3,
3/5,1,4/6,{8}8,2,
{16}5,4,5,4,5,4,{8}6/3,,6,{4}7b/8b,
1b/2b,3b/4b,{16}4b/5b,6,7,8,1,2,3,4,
{4}5/1h[4:1],6h[8:5],{16}A7,A8,A1,A2,A3,A4,,,,,{8}5,
6/4,7,5,6,4,3,
{2}8<5b[8:1]*q5b[8:1],1-4b[8:1]*-7b[8:1],
{4}2b,1b,{16}4/6,3,2,1,8,7,6,5,
{4}4/8h[4:1],3h[8:5],{16}A2,A1,A8,A7,A6,A5,,,,,{8}4,
{4}5-8[8:1],4/5-2[8:1],5/6,
1/7,{8}5/3,2,1/7,6,4>1[16:3]*-1[16:3],5,
{4}4x<7[16:3]*-7[16:3],4x-8[8:1],4x,1/7-3[8:1],
6-2[8:1],5-1[8:1],4-8[8:1],{8}3>6[8:3]*p6[8:3],3,
,,,,{2}5w1b[8:1],
{4}7/3,6/4,8/1,{8}5/3,4,
5/7,6,5/4,3,{16}4,2,4,2,5,3,5,3,
5x,4,5,4,5,4,5x,4,5,4,5,4,5x,4,5,4,
5,4,5x,4,5,4,5,4,5x,4,5,4,5x,4,5,4,
6bxh,4h,5h,4h,5h,4h,7bxh,4h,5h,4h,5h,4h,8bxh,4h,5h,4h,
{8}3bx/6b,6bx/3b,,,{2}1w5[8:1],
{8}7-3[8:1],2,7,1,1>4[8:1],5,{4}1/5,
{8}8<5[8:1],4,8,3,2-6[8:1],4,2,5,
7,5,8,4,1/5,2,{4}6/3-7[4:1],
7-5[4:1],5-2[4:1],2-5[4:1],6,
{8}6,7,8/2,3,4/5,{16}6,5,{8}7v4[8:1],4,
,,3,6,4/5,{16}3,4,{8}2,5/1h[8:3],
{4}E7,4h[2:1],C,5,
{8}5/3,2/6,7,{32}1,2,3,4,5,6,7,8,1,2,3,4,{4}5,
{8}6/2-6[8:1],5,{4}2,{8}8<5[8:1],4,{4}3/8,
{8}1>4[8:1],5,{4}1/6,{8}7-3[8:1],5,7,5,
2,4,1,5,4/8,7,{4}2/5-1[4:1],
1-7[4:1],7-4[4:1],4-7[4:1],3,
2h[8:1],{8}3h[8:1],1,4h[8:1],2,5h[8:1],3,
{4}6/2,{8}3/4,5,3/4,{16}6,5,{8}6,4,
2/8,7,3/6,4,{4}5/6h[8:1],2/5,
{24}5bx/1bx,2/6,3/7,4/8,,,,,,,,,8bx/4bx,3/7,2/6,1/5,,,,,,,,,1bx/5bx,
2,3,4,5,6,7,8,1,2,3,4,5,6,7,8,1,2,3,4,5,6,7,8,
{4}1,{8}2/6,3,4/5,6,{4}5/7,
7/8,1/2,3/4,6v1[8:1]/5v2[8:1],
{2}5b/6b,{4}3/8,4/5,
1/8,{16}2,1,{8}2,{16}7,8,{8}7,{16}2,1,{8}2,
{16}7,8,7,8,6,1,5,2,4,3,4,3,4,3,4,3,
{4}5b<8[4:1],8b>3[4:1],3b<6[4:1],{8}6b-1b[4:1]*-3b[4:1],6b,
,,,,{4}E2/E3/B2f/A2,E6/A6/E7/B6f,
{8}5/4,3,2,1/7,6,5/4,3,2/8,
4,7,6/5-2[8:1],4,{4}5b<8[16:3],5b,
{8}4,3,2,1/7,6,2/5,3,5,
4,8,{4}7<4[16:3]/3>8[16:3],{2}3b/7b,
{8}4,6,5,8/2,3,4/5,6,7/1,
5,2,3/4-7[8:1],5,{4}4b>1[16:3],4b,
7,{8}1/6,2,6,3v8q4>1b[8:5]/5v8p4<7b[8:5],3/5,3/5,
,,,,,,,,1,
6/8-4[8:1],,8/2,,,1/8,{24}1b/8b,7/2,6/3,
{1}5/4,
E
