&title=on your mark
&artist=蓮ノ空女学院スクールアイドルクラブ
&first=0
&des=absqrt.
&clock_count=4
&lv_1=慈
&lv_2=沙
&lv_3=瑠
&lv_4=花
&lv_5=梢
&lv_6=缀
&inote_1=(154)
{1},,
{8}6/5,8,4^1[8:1],5/7,{16}8p4[16:1],,,8,,,1h[8:20],,
{8},,,,,,,,,,,,,,,,,,,,{48},,,,D7,,{8}E1f,,,
{8}4/3,2qq8[8:1],5,6/2,{16}6^1[16:3],,,1^4[16:3],,,4x,,
{8},1x,5/2,3,{16}4^7[16:3],,,7,,,8h[8:8],,
{8},,,,,,2h[8:6],,{12}5,,,,,,
{8},,6/5,,
{4}6h[2:1]/5,,5h[2:1],,6h[2:1],,5h[2:1],,6h[2:1],,5h[2:10],,6q3[4:1],,,,
{1}6h[2:7],,,
{2},{4},7b/2b,
{4}6-2[8:1],2-5[8:1],6-2[8:1],2-5[8:1],
{4}6q3[8:1],2^7[8:1],6q3[8:1],2,
{1}7hx[4:7]/8h[4:7],,
{4}7h[4:1],8h[4:1],7h[4:1],8h[4:1],7h[4:1],8h[4:1],7h[4:1],8,
{8}4-8[8:1]/2,5,4/2,,7/1q5[8:1],2,7-3[8:1]/1,,
{8}7b/4b,,,,
{4}3^6[4:1],,7p2[4:1],,3^6[4:1],,7p2[4:1],,
{4}3^6[4:1],,7p2[4:1],,3^6[4:1],,7p2[4:1],,
{8}3,4,1,8,
{16}7/5,,7,E4,7,,2/7,,2/4,,2,E6,2,,7/2,,
{8}7-4[8:1]/2,7,2-5[8:1],2,8-4[8:1],8,1,1,
{8}6h[8:8],3h[8:7],,,,,,,
{4},A7f/E8f,,,
{16}3-8[8:1],5,2,,6pp3[2:1]/3,,7,,6/1,,,2,,,4^1[8:1],,
{8},4pp6[8:1],5,4-8[8:1],3,4,7h[1:2],,
{4}6,3,6,3,6,3,6,3,
{16}4-7[8:1],6,3,,4/2qq6[8:3],,1,,4/2,,,5,,,7^4[8:1],,
{8},7q3[8:1],8,7qq5[8:1],6,7,8-4b[8:1],,
{8}8b/3^1b[8:1],,5/3b,,{16}7^4[16:3]/8,,,4^1[16:3],,,8q1[8:3],,
{4},,
{8}8xz4[4:1],2,4z8b[4:1],3,2,,1,,
{8}1s5[4:1],7,5s1b[4:1],6,7,,8,,
{4}2h[4:7],3,6,3,6,3,6,3,
{8}8z4[4:1],2,4z8b[4:1],3,2,,1,,
{8}1s5[4:1],7,5s1b[4:1],6,7,,8,,
{4}2h[4:6],4,7,4,7,4,7,
{4}E1f,,,
{8}4/3,1,5^8[8:1],2/4,{16}1p5[16:1],,,1,,,7h[4:1],,
{32},,A5,A4,A3,,,,{8}2-6[8:1],7/1,{16}8^3[16:1],,,8,,,5,,
{8}7/4,2,6^1[8:1],5/3,{16}2v5[16:1],,,2,,,8h[4:1],,
{32},,A4,A3,A2,,,,{8}7v4[8:1],8/3,{16}2q6[16:1],,,2,,,7,,
{8}8/5,4,3v6[8:1],7/2,{16}8-5[16:1],,,8,,,4h[4:1],,
{32},,A6,A7,A8,,,,{8}2v5[8:1],7/1,{16}6^1[16:1],,,6,,,3h[1:1],,
{8},,,,,,1h[24:18],,{12}5,,,,,,,,,
{1}8bqq6<6b[1:3]/4bqq2>2[1:3],
&inote_2=(154)
{1},,,
{2},{16}5q1[16:1],,,5,,,3,,
{8}8/4,7,5^2[8:1],6h[8:8],,,,,,,,,{48},,E7,,,,{8}E1f,,,
{8}4/3,2qq8[8:1],5,6/2,{16}6^1[16:3],,,1^4[16:3],,,4x,,
{8},1x,5/2,3,{16}4^7[16:3],,,7,,,8h[8:8],,
{8},,,,,2h[8:7],,,{12},5,,,,,,,,6/3,,,
{8}5pp4[2:1],5,4,4,{16}3,,,1,,,3p6[4:1],,
{8},6q3[4:1],6,5,{16}5,,,7,,,8,,
{8}Ch[4:7],,E2,,E8,,E2,,7,7,2,2,7,,2,,
{1}5h[4:13]/4h[4:13],,,
{4},,7-4[8:1]/2-5[8:1],7b/2b,
{8}6/3,4^1[8:1],7,4,8V64[4:1],1,8,2,
{8}3^1[8:1],5,3-7[8:1],6,3,8,8,,
{1}7h[4:7]/2h[4:7],,
{4}3h[4:1],6h[4:1],3h[4:1],6h[4:1],3h[4:1],6h[4:1],3h[4:1],6,
{2}1h[4:5]/5h[4:5],,,
{4}3^6[4:1],,7p2[4:1],,3^6[4:1],,7p2[4:1],,
{4}3^6[4:1],,7p2[4:1],,3^6[4:1],,7p2[4:1],,
{8}3,,4,,
{8}5/2,3,7/4,6,5/2,3,7/4,6,5/2,3,7/4,6,5/2,3,7/4,6,
{8}3h[8:8],6h[8:7],,,,,,,
{4},A7f/E8f,,,
{16}3-8[8:1],5,2,,6pp3[2:1]/3,,7,,6/1,,,2,,,4^1[8:1],,
{8},4pp6[8:1],5,4-8[8:1],3,4,7h[1:2],,
{4}6,3,6,3,6,3,6,3,
{16}4-7[8:1],6,3,,4/2qq6[8:3],,1,,4/2,,,5,,,7^4[8:1],,
{8},7q3[8:1],8,7qq5[8:1],6,7,8-4b[8:1],,
{8}8b/3^1b[8:1],,5/3b,,{16}7^4[16:3]/8,,,4^1[16:3],,,8q1[8:3],,
{4},,
{8}8xz4[4:1],2,4z8b[4:1],3,2,,1,,
{8}1s5[4:1],7,5s1b[4:1],6,7,,8,,
{8}2^5qq3[2:1],5,2,,8^5[8:1],,8,,
{16}4-7[16:3],,,7qq3[16:7],,,8,,,,,,,,,,
{8}8z4[4:1],2,4z8b[4:1],3,2,,1,,
{8}1s5[4:1],7,5s1b[4:1],6,7,,8,,
{4}2h[4:6],4,7,4,7,4,7,
{4}E1f,,,
{8}4/3,1,5^8[8:1],2/4,{16}1p5[16:1],,,1,,,7h[4:1],,
{32},,A5,A4,A3,,,,{8}2-6[8:1],7/1,{16}8^3[16:1],,,8,,,5,,
{8}7/4,2,6^1[8:1],5/3,{16}2v5[16:1],,,2,,,8h[4:1],,
{32},,A4,A3,A2,,,,{8}7v4[8:1],8/3,{16}2q6[16:1],,,2,,,7,,
{8}8/5,4,3v6[8:1],7/2,{16}8-5[16:1],,,8,,,4h[4:1],,
{32},,A6,A7,A8,,,,{8}2v5[8:1],7/1,{16}6^1[16:1],,,6,,,3h[1:1],,
{8},,,,,1h[24:21],,,{12},5,,,,,,,,
{1}8bqq6<6b[1:3]/4bqq2>2[1:3],
&inote_3=(154)
{1},,,,
{2},{16}6-2[16:1],,,6,,,3h[4:1],,
{16},{32}A1,A8,A7,,,,{8}6/4,2,C,E1f,,,
{8}4/3,2qq8[8:1],5,6/2,{16}6^1[16:3],,,1^4[16:3],,,4x,,
{8},1x,5/2,3,{16}4^7[16:3],,,7,,,8h[8:8],,
{8},,,,2h[8:8],,,,{12},,5,,,,,,,4/3,,,
{4}3h[2:1]/4,,4h[2:1],,3h[2:1],,4h[2:1],,3h[2:1],,4h[2:10],,6q3[4:1],,,,
{1}3h[2:7],,,
{2},{4},2b/7b,
{4}3-7[8:1],7-4[8:1],3-7[8:1],7-4[8:1],
{4}3p6[8:1],7^2[8:1],3p6[8:1],7,
{1}2hx[4:7]/1h[4:7],,
{8}5/3,2^5[8:1],5,2,6q2[8:1],5,6,4,
{8}3^1[8:1],4pp4b[4:1],3,4qq4b[4:1],,,,,
{2}1h[4:5]/5h[4:5],,,
{4}3^6[4:1],,7p2[4:1],,3^6[4:1],,7p2[4:1],,
{4}3^6[4:1],,7p2[4:1],,3^6[4:1],,7p2[4:1],,
{8}3,,4,,
{8}5/2,3,7/4,6,5/2,3,7/4,6,5/2,3,7/4,6,5/2,3,7/4,6,
{8}3h[8:8],6h[8:7],,,,,,,
{4},,B8f/B1f,,
{16}3-8[8:1],5,2,,6pp3[2:1]/3,,7,,6/1,,,2,,,4^1[8:1],,
{8},4pp6[8:1],5,4-8[8:1],3,4,7h[1:2],,
{4}6,3,6,3,6,3,6,3,
{16}4-7[8:1],6,3,,4/2qq6[8:3],,1,,4/2,,,5,,,7^4[8:1],,
{8},7q3[8:1],8,7qq5[8:1],6,7,8-4b[8:1],,
{8}8b/3^1b[8:1],,5/3b,,{16}7^4[16:3]/8,,,4^1[16:3],,,8q1[8:3],,
{4},,
{8}8xz4[4:1],2,4z8b[4:1],3,2,,1,,
{8}1s5[4:1],7,5s1b[4:1],6,7,,8,,
{4}2h[4:7],3,6,3,6,3,6,3,
{8}8z4[4:1],2,4z8b[4:1],3,2,,1,,
{8}1s5[4:1],7,5s1b[4:1],6,7,,8,,
{8}7^4pp6[8:3],4,7,3,1^4[8:1],,1,,{16}7/5-1[16:3],,,1^4[16:3],,,8,,
{4},E1f,,,
{8}4/3,1,5^8[8:1],2/4,{16}1p5[16:1],,,1,,,7h[4:1],,
{32},,A5,A4,A3,,,,{8}2-6[8:1],7/1,{16}8^3[16:1],,,8,,,5,,
{8}7/4,2,6^1[8:1],5/3,{16}2v5[16:1],,,2,,,8h[8:3],,
{8},,3p6[8:1],,8<4[4:1],,4q7b[4:2],4qq8b[8:5],,,,,,,,
{8}5p2b[4:2],5pp1b[8:5],,,,,,,3h[1:1],
{8},,,,1h[24:24],,,,{12},,5,,,,,,,
{1}8bqq6<6b[1:3]/4bqq2>2[1:3],
&inote_4=(154)
{1},,,,
{2},{16}3-7[12:1],,,3,,,6h[4:1],,
{16},{32}A8,A1,A2,,,,{8}3/5,7,{48},C,,,,,{8}E1f,,,
{8}4/3,2qq8[8:1],5,6/2,{16}6^1[16:3],,,1^4[16:3],,,4x,,
{8},1x,5/2,3,{16}4^7[16:3],,,7,,,8h[8:8],,
{8},,,2h[8:9],,,,,{12},,,5,,,,,,6/5,,,
{1}6h[2:7]/5h[1:4],,,,
{4}6h[4:1],5h[4:1],6h[4:1],5h[4:1],6h[4:1],5h[4:1],6h[4:1],5h[4:1],
{4}6h[4:1],5h[4:1],6h[4:1],5h[4:4],6^3[4:1],,,6,
{1}7h[4:7]/8h[4:7],,
{4}6q2[8:1],2^5[8:1],6q2[8:1],2^5[8:1],
{4}6v1[8:1],2-5[8:1],6v1[8:1],2,
{4}4h[4:1],5h[4:1],4h[4:1],5h[4:1],4h[4:1],5h[4:1],4h[4:1],5,
{8}4-8[8:1]/2,5,4/2,,7/1q5[8:1],2,7-3[8:1]/1,,
{8}7b/4b,,,,
{4}6^3[4:1],,2q7[4:1],,6^3[4:1],,2q7[4:1],,
{4}6^3[4:1],,2q7[4:1],,6^3[4:1],,2q7[4:1],,
{8}6,,5,,
{8}4/7,6,2/5,3,4/7,6,2/5,3,4/7,6,2/5,3,4/7,6,2/5,3,
{8}7-4-8-5[2:1],4,7,3V14b[8:3],3,,,,
{4},,B8f/B1f,,
{16}3-8[8:1],5,2,,6pp3[2:1]/3,,7,,6/1,,,2,,,4^1[8:1],,
{8},4pp6[8:1],5,4-8[8:1],3,4,7h[1:2],,
{4}6,3,6,3,6,3,6,3,
{16}4-7[8:1],6,3,,4/2qq6[8:3],,1,,4/2,,,5,,,7^4[8:1],,
{8},7q3[8:1],8,7qq5[8:1],6,7,8-4b[8:1],,
{8}8b/3^1b[8:1],,5/3b,,{16}7^4[16:3]/8,,,4^1[16:3],,,8q1[8:3],,
{4},,
{8}8xz4[4:1],2,4z8b[4:1],3,2,,1,,
{8}1s5[4:1],7,5s1b[4:1],6,7,,8,,
{4}2h[4:7],3,6,3,6,3,6,3,
{8}8z4[4:1],2,4z8b[4:1],3,2,,1,,
{8}1s5[4:1],7,5s1b[4:1],6,7,,8,,
{4}2h[4:6],4,7,4,7,4,7,
{4}E1f,,,
{8}4/3,1,5^8[8:1],2/4,{16}1p5[16:1],,,1,,,7h[4:1],,
{32},,A5,A4,A3,,,,{8}2-6[8:1],7/1,{16}8^3[16:1],,,8,,,5,,
{8}7/4,2,6^1[8:1],5/3,{16}2v5[16:1],,,2,,,8h[4:1],,
{32},,A4,A3,A2,,,,{8}7v4[8:1],8/3,{16}2q6[16:1],,,2,,,7,,
{8}8/5,4,3v6[8:1],7/2,{16}8-5[16:1],,,8,,,4h[4:1],,
{32},,A6,A7,A8,,,,{8}2v5[8:1],7/1,{16}6^1[16:1],,,6,,,3h[1:1],,
{8},,,1h[24:27],,,,,{12},,,5,,,,,,
{1}8bqq6<6b[1:3]/4bqq2>2[1:3],
&inote_5=(154)
{1},,,,
{8}1/5,6,2-6[8:1],7/3,8h[8:7],,,,,,,,{48},,,E3,,,{8}E1f,,,
{8}4/3,2qq8[8:1],5,6/2,{16}6^1[16:3],,,1^4[16:3],,,4x,,
{8},1x,5/2,3,{16}4^7[16:3],,,7,,,8h[8:8],,
{8},,2h[8:10],,,,,,{12},,,,5,,,,,5/4,,,
{1}5h[4:15]/4h[4:15],,,,
{8}3qq5[2:1],3,4,4,{16}6,,,8,,,6<2[4:1],,
{8},2<6[4:1],2,3,{16}3,,,5,,,3,,
{8}Ch[4:7],,E8,,E2,,E8,,2,2,7,7,2,,8,,
{1}6h[4:7]/3h[4:7],,
{8}7/2,1^4[8:1],6,1,5q1[8:1],4,5^8[8:1],3,
{8}5-1[8:1]*^2[8:1],,5^8[8:1],,5qq3[8:1],,5/7,,
{4}6h[4:1],3h[4:1],6h[4:1],3h[4:1],6h[4:1],3h[4:1],6h[4:1],3,
{2}1h[4:5]/5h[4:5],,,
{4}6^3[4:1],,2q7[4:1],,6^3[4:1],,2q7[4:1],,
{4}6^3[4:1],,2q7[4:1],,6^3[4:1],,2q7[4:1],,
{8}6,,5,,
{8}4/7,6,2/5,3,4/7,6,2/5,3,4/7,6,2/5,3,4/7,6,2/5,3,
{8}6h[8:8],3h[8:7],,,,,,,
{4},,,E2f/A2f,
{16}3-8[8:1],5,2,,6pp3[8:3]/3,,7,,6/1,,,2,,,4^1[8:1],,
{8},4pp6[8:1],5,4-8[8:1],3,4,7h[4:1],,
{16}1,,2,5,3p6[16:3],,6/4,,3,,,8^5[16:3],,,4qq5[8:5],,
{16},,,,{8}5x,,6,,7,,
{16}4-7[8:1],6,3,,4/2qq6[8:3],,1,,4/2,,,5,,,7^4[8:1],,
{8},7q3[8:1],8,7qq5[8:1],6,7,8-4b[8:1],,
{8}8b/3^1b[8:1],,5/3b,,{16}7^4[16:3]/8,,,4^1[16:3],,,8q1[8:3],,
{4},,
{8}8xz4[4:1],2,4z8b[4:1],3,2,,1,,
{8}1s5[4:1],7,5s1b[4:1],6,7,,8,,
{4}2h[4:7],3,6,3,6,3,6,3,
{8}8z4[4:1],2,4z8b[4:1],3,2,,1,,
{8}1s5[4:1],7,5s1b[4:1],6,7,,8,,
{4}2h[4:6],4,7,4,7,4,7,
{4}E1f,,,
{8}4/3,1,5^8[8:1],2/4,{16}1p5[16:1],,,1,,,7h[4:1],,
{32},,A5,A4,A3,,,,{8}2-6[8:1],7/1,{16}8^3[16:1],,,8,,,5,,
{8}7/4,2,6^1[8:1],5/3,{16}2v5[16:1],,,2,,,8h[4:1],,
{32},,A4,A3,A2,,,,{8}7v4[8:1],8/3,{16}2q6[16:1],,,2,,,7,,
{8}8/5,4,3v6[8:1],7/2,{16}8-5[16:1],,,8,,,4h[4:1],,
{32},,A6,A7,A8,,,,{8}2v5[8:1],7/1,{16}6^1[16:1],,,6,,,3h[1:1],,
{8},,1h[24:30],,,,,,{12},,,,5,,,,,
{1}8bqq6<6b[1:3]/4bqq2>2[1:3],
&inote_6=(154)
{1},,
{2},{16}7v4[16:1],,,7,,,2h[4:1],,
{32},,A5,A6,A7,,,,{8}8/3^8[8:1],4,{16}7q3[16:1],,,7,,,4h[8:12],,
{1},{2},{48},,,,,D3,{8}E1f,,,
{8}4/3,2qq8[8:1],5,6/2,{16}6^1[16:3],,,1^4[16:3],,,4x,,
{8},1x,5/2,3,{16}4^7[16:3],,,7,,,8h[1:1],,
{8},2h[8:11],,,,,,,{12},,,,,5,,,,4/3,,,
{1}3h[2:7]/4h[1:4],,,,
{4}3h[4:1],4h[4:1],3h[4:1],4h[4:1],3h[4:1],4h[4:1],3h[4:1],4h[4:1],
{4}3h[4:1],4h[4:1],3h[4:1],4h[4:4],3^6[4:1],,,3,
{1}2h[4:7]/1h[4:7],,
{4}3p7[8:1],7^4[8:1],3p7[8:1],7^4[8:1],
{4}3v8[8:1],7-4[8:1],3v8[8:1],7,
{4}1hx[4:1],2h[4:1],1h[4:1],2h[4:1],1h[4:1],2h[4:1],1h[4:1],2,
{8}4-8[8:1]/2,5,4/2,,7/1q5[8:1],2,7-3[8:1]/1,,
{8}7b/4b,,,,
{8}4/2qq3[8:3],5,6,7,
{16}8x^5[16:3],,,5x^2[16:3],,,2,,1pp8[8:3],,,8x,,,6,,6,,,,
{8}5-7v8[4:1],,5,4,3,3,
{8}4h[4:3],,D2,,C,,D6,,
{8}7/5,,4,,5/3,2,1/5,6,
{8}4/7,6,2/5,3,4/7,6,2/5,3,4/7,6,2/5,3,4/7,6,2/5,3,
{8}6h[8:8],3h[8:7],,,,,,,
{4},,,E2f/A2f,
{16}3-8[8:1],5,2,,6pp3[2:1]/3,,7,,6/1,,,2,,,4^1[8:1],,
{8},4pp6[8:1],5,4-8[8:1],3,4,7h[1:2],,
{4}6,3,6,3,6,3,6,3,
{16}4-7[8:1],6,3,,4/2qq6[8:3],,1,,4/2,,,5,,,7^4[8:1],,
{8},7q3[8:1],8,7qq5[8:1],6,7,8-4b[8:1],,
{8}8b/3^1b[8:1],,5/3b,,{16}7^4[16:3]/8,,,4^1[16:3],,,8q1[8:3],,
{4},,
{8}8xz4[4:1],2,4z8b[4:1],3,2,,1,,
{8}1s5[4:1],7,5s1b[4:1],6,7,,8,,
{4}2h[4:7],3,6,3,6,3,6,3,
{8}8z4[4:1],2,4z8b[4:1],3,2,,1,,
{8}1s5[4:1],7,5s1b[4:1],6,7,,8,,
{4}2h[4:6],4,7,4,7,4,7,
{4}E1f,,,
{8}4/3,1,5^8[8:1],2/4,{16}1p5[16:1],,,1,,,7h[4:1],,
{32},,A5,A4,A3,,,,{8}2-6[8:1],7/1,{16}8^3[16:1],,,8,,,5,,
{8}7/4,2,6^1[8:1],5/3,{16}2v5[16:1],,,2,,,8h[4:1],,
{32},,A4,A3,A2,,,,{8}7v4[8:1],8/3,{16}2q6[16:1],,,2,,,7,,
{8}8/5,4,3v6[8:1],7/2,{16}8-5[16:1],,,8,,,4h[4:1],,
{32},,A6,A7,A8,,,,{8}2v5[8:1],7/1,{16}6^1[16:1],,,6,,,3h[1:1],,
{8},1h[24:33],,,,,,,{12},,,,,5,,,,
{1}8bqq6<6b[1:3]/4bqq2>2[1:3],
