&title=SAN値直葬
&artist=STEAKA,初音ミク
&first=0.07
&des=Yeego
&lv_5=13+
&inote_1=
&inote_5=(168)
{1},
{4}2V48[8:3]/6,6,{16}5,,,4,,,1/7<3[8:3],,,,
{16}8,,,8,,,1,,,1,,,2,,5V73[8:3],,,,4,,,,4,,,2,,,2,,,
{16}8xh[32:1],,8xh[32:1],
{32}7xh[32:14]/E4,E3,E2,E1,E8,E7,E6,E5,E4,E3,E2,E1,E8,,{4}5x,{16},
{4}4h[2:1]/3,2,{16}1V73-5[4:1],,,6,,,6h[12:1],,,,
{16}7h[12:1]/8h[12:1],,,7h[12:1]/8h[12:1],,,
{16}2h[12:1]/6h[12:1],,,2h[12:1]/6h[12:1],,,56,,
{4}5h[2:1]/6,7,{16}8V26-4[4:1],,,3,,,3h[12:1],,,,
{16}2h[12:1]/1h[12:1],,,2h[12:1]/1h[12:1],,,
{16}7h[12:1]/3h[12:1],,,7h[12:1]/3h[12:1],,,43,,
{4}4h[2:1]/3,2,{16}1V37-5[4:1],,,4,,,4h[12:1],,,,
{16}4h[12:1]/8h[12:1],,,1h[12:1]/5h[12:1],,,
{16}2h[12:1]/6h[12:1],,,3h[12:1]/7h[12:1],,,5,1,
{4}3h[2:1],8,{16}7,,,6,,,4,,
{8}35,1,46,8,{32}5x/E3,E2,E1,E8,E7,E6,E5,E4,
{4}2x-4[8:1]/6x,2/7-3[8:1],7/5-1-3[4:1],{16}2,,,8,,,6>8[2:1],,,,
{16}7h[12:1],,,7h[12:1],,,5h[12:1],,,5h[12:1],,,3,,
{4}7-5[8:1]/3,7/2-6[8:1],{16}2/4-8[8:1],,,3,,,5<3[2:1],,,,
{16}4h[12:1],,,4h[12:1],,,6h[12:1],,,6h[12:1],,,8,,
{8}45,3,56,7,35,2,57,8,25,1,47,8,
{64}37,D4,A4,D5,A5,D6,A6,D7,A7,D8,A8,D1,A1,D2,A2,D3,
{64}A3,D4,A4,D5,A5,D6,A6,D7,A7,D8,A8,D1,A1,D2,A2,D3,{1}3xq5[2:1]/7xq1[2:1],
{4}2b-6[8:1]b/6b,2b/8bV64[6:1]b,{16}8b,,3x,2x,1xh[4:1],,,,
{16}4,8,6v3[8:1],,5/2<5[4:1],,,,2,,4,,8,,8,,
{16}1,5,3v8[8:1],,7-5v2[4:1]/4,,,,7,,1,,4,,4,,
{16}1,5,7v4[8:1],,6/2^8v5[4:1],,,,2,,5,,7,,7,,
{16}4,8,2h[4:1],,,,5-1[8:1]b,1,3,7,,,6x,,6x,,
{16}8,4,2v8[8:1],,6-4v1[4:1]/3,,,,6,,1,,3,,3,,
{16}1,5,7v1[8:1],,3-5v8[4:1]/6,,,,3,,8,,6,,6,,
{4}1/5-2[8:1],5/3-8[8:1],3/1-6[8:1],1/7-4[8:1],
{8}7/5b-2[8:1]b,,5/3b-8[8:1]b,,3/1bw5[8:1]b,,1b,,
{64}4x,D4,A3,D3,A2,D2,A1,D1,A8,D8,A7,D7,A6,D6,A5,D5,
{16}4xV62[8:1],7x,3x,,8V24-6[6:1]/4x,,7,,38,,E2,,
{16}E8,E1,A1,,E5,E4,A3,,{4}8b^1-3[8:1]b*-4[8:1]b,8b,
{16}7>4[6:1],5,6,5,7,,5,,2xV84[6:1]*V86[6:1],,6,,2,,,,
{16}A5,E6,E7,,E3,E2,A1,,4b>8[8:1]b*v7[8:1]b,,,,4b,,,,
{64}6x,D6,A5,D5,A4,D4,A3,D3,A2,D2,A1,D1,A8,D8,A7,D7,
{16}6x^8-4[8:1],2x,5x,,6x/3V57-1[6:1],,2,,36,,E5,,
{16}A6,E7,E8,,A4,E4,E3,,{4}5b-1[8:1]b*^4-8[8:1]b,5b,
{16}2<5[6:1],4,3,4,2,,5,,7xV15-3[6:1],,26,,4,,,,
{16}E6,E7,A7,,E3,E2,A1,,{4}8bw4[8:1]b,8b,
{4}3,3,3,3,3,3,3,3,5,5,5,5,5,5,5,5,4,4,4,4,4,4,4,4,6,6,6,6,6,6,6,6-3-8-5[4:7]b,
{4}2,2,2,2,2,2,2,2-5-8-3[4:7]b,
{4}4,4,4,4,4,4,4,4,
{8}34,2,45,6,57,3,35,6,47,3,25,1,78,6,35,2,
{16}6,5,6,5,8,5,8,5,{32}1x,8x,7x,6xh[8:2]/4x,E4,E3,E2,E1,E8,E7,E6,E5,
{1}4x-7-2-5[8:5],{8},
{32}48,37,26,1h[8:1]/5h[4:1],{8},,
{32}E3,E4,E5,E6,E7,E8,E1,2x,,,,,
{16}6h[32:1],1h[32:1],4-1[8:1]b,3h[32:1],{8},4b,5b^2[8:1]b,,
{16}5b,,,8b-4[16:1]b,,,8b/5b^2[16:1]b,,,
{16}5b,,,8b-4[16:1]b,,,8b/5b^2[16:1]b,,,
{16}5b,,,8b-4[16:1]b,,,8b/5b^2[16:1]b,,,
{16}5b,,,8b-4[16:1]b,,,8b/5b-3[16:1]b,,,
{16}5b,,8bh[4:1],,
{32}E4,E5,E6,E7,E8,E1,E2,E3,
{16}4xh,4xh,4xh,4xh,4xv1[8:1]*p8[8:1],,,,4x,,,,
{32}8xb/1xb,7xb/2xb,6xb/3xb,5xb/4xb,,,,,{24}E7,E8,E1,E2,E3,E4,
{16}5x-2[16:1],,,1-5[16:1],,,4w8[8:5],,{2},{4},
{8},1b/2bV46[8:1]b,,2b,1b,7b,5,Ch[8:2],4x-1[8:1],,
{4}4-7[8:1],4/8-5[8:1],1/8-3[8:1],8/4-1[8:1],5/4-7[8:1],4/8-3[8:1]*-5[8:1],8,17,
{4}2V46[4:1],6V82[4:1],2,6,4q5[4:1]/5,4/5<4[4:1],1,
{4}5-2[8:1],5/1-4[8:1],8/1-6[8:1],1/5-8[8:1]*-2[8:1],5,
{4}4V68-2[4:1],{8}4,1,7,,
{4}8w4[8:1],8,1w5[8:1],1,2-6[8:1],2/1-5[8:1],1/8,{32}8,7,6,5,4,3,2,1,
{4}8-5[8:1],8-3[8:1]/1,8/4-1[8:1],5/4-7[8:1],4/8-5[8:1],1/8-3[8:1],
{4}8/4-1[8:1]*-7[8:1],4,35,
{4}7V53[4:1],3V17[4:1],7,3,4/5p4[4:1],5/4>5[4:1],8,
{4}1-6[8:1],1/5-8[8:1],4/5-2[8:1],5/1-4[8:1]*-6[8:1],1,2V46-8[4:1]/8,{8}2,7,5,,
{4}1w5[8:1],1,8w4[8:1],8,7-3[8:1],7/8-4[8:1],8/1-5[8:1],1/2-6[8:1],
{8}2/4<2[6:1],,7-3[8:1],,4p8[8:1],4,7-3[8:1],,
{8}7/5<3[4:1],,4,4,5,5,4q1[8:1]/7^4[8:1],,47,,
{8}2/5^8[8:1],,2-6[8:1],2,4q1[8:1],,2-6[8:1],,
{8}2-5[8:1],7-1[8:1],2,7,2<5[4:1]b,,
{20}E2,E1,E8,E7,E6,
{8}1xp5[8:1],,3-7[8:1],3,1<6[8:1],,4>6[4:1],,5,5,4,4,5-8[8:1]/1v4[8:1],,15,,
{8}1-5[8:1]/3,,18,,8-4[8:1]/6,,8-5[8:1]/1,,7/8-3[8:1],,8-4[8:1]/1,,7/8w4[8:1],,8,,
{8}6-2[8:1],,1p5[8:1],1,6-2[8:1],,8<2[4:1],,1,1,8,8,7v1[8:1]/2V46[8:1],,27,,
{8}3-7[8:1],,5q1[8:1],5,3-7[8:1],,6-4[8:1],,
{8}6-2[8:1],3-1[8:1],6,3,8<2[4:1]b,,{20}E8,E7,E6,E5,E4,
{8}1-5[8:1],,6q2[8:1],6,1^4[8:1],,6<3[4:1],,5,5,6,6,4-6[8:1]/7-3[8:1],,47,,
{8}2v5[8:1]/8q4[8:1],,28,,7v4[8:1]/3q8[8:1],,
{8}7/3^6[8:1]b,,7b^2[8:1]b/3b,,7b/4b-8[8:1]b,,4bw8[8:1]b,,4b,,
{4}7x^4[8:1],2x^7[8:1],5x^2[8:1],8x^5[8:1],3x^8[8:1],6x^3[8:1],
{16}1x-6[16:1]b,,,1xh,,,2xh,,
{4}5x^4-2[8:1],8x^7-5[8:1],3x^2-8[8:1],6x^5-3[8:1],1x^8-6[8:1],4x^3-1[8:1],
{16}7x^6-4[16:1]b,,,7xh,,,8xh,,
{4}2xv7[8:1],5xv2[8:1],8xv5[8:1],3xv8[8:1],6xv3[8:1],1xv6[8:1],
{16}4xv1[16:1]b,,,4xh,,,8xh,,
{16}7xp3[16:1]b,,,7xh,,,2xh,,
{16}2xv5[16:1]b,,,2xh,,,8xh,,
{16}1x^8-5[16:1]b,,,1xh,,,4xh,,
{16}3xV17[16:1]b,,,3xh,,,6xh,,E
&inote_6=
