&title=天使の翼。
&artist=A4。
&first=0
&des=phoshydriodi
&lv_6=13+
&inote_6=(125)
{1},
{16}3-5[8:1]/5h[4:1],,,,3,,,,5/6h[16:3],,,3,5,3,4,,
{16}2-4[8:1]/5h[4:1],,,,2,,,,5h[16:3]/6,,,6,5,,4,,
{16}3-5[8:1]/5h[4:1],,,,3,,,,5/6h[16:3],,,3,5,3,4,,
{16}2-4[8:1],6pp4[8:3],,5-2[8:1],,,,,,,,,1b^4[8:1],,,,
{16}1b/7b,,8,,7-5[8:1],8,,,7/4,,3,,2/4,,5,,
{16}6-4[8:1]/4,,7,,6/2-5[8:1],,1,,6/2,,7,,8/1,,2,,
{16}5/3,,,6,5-7[8:1],,4,,5/3,,2,,8/1,,7,,
{16}2-4[8:1]/6,,1,,2/5-2[8:1]*-8[8:1],,6,,5,,,,,,,,
{16}2h[384:1]/5,,4,,3,,3,4,3,,5,4,5,,6,,
{16}7h[384:1],,4,5,4,,3,4,,4,,4,3,,3,,
{16}2h[384:1],,4,,4,3,,3,5,4,6,5,7,,8,,
{16}7h[384:1],,6,5,6,,6,5,,5,,5,4,,3,,
{16}2h[384:1],,4,,3,5,4,7,,5,,5,6,,6,5,
{16}7h[384:1],,4,5,4,,3,4,,4,,4,3,,2,,
{16}2h[384:1]/5-7[8:1],,5,,4-2[8:1],,4,,8-6[8:1],,8,,2,,3,,
{16}7h[384:1]/4-1[8:1],,4,,5V36[4:1],,,,1,,,,,,,,
{16}4/6,,3,,2h[8:1]/5,,4,3,,3,,6,5,,7,,
{16}4/5,,3,1,3,,7,1,7-4[8:1],,8,,3/7,,2,,
{16}3/5,,6,,4/7h[8:1],,5,6,5,,4,,3/4,,2,,
{16}4/5,,6,8,6,,2,8,2,,5/2,,4,3,,3,
{16}4-6[8:1],,,3/6,,,7-4[8:1],,,4/8,,,3-7[8:1],,,2/6,
{16},,8-3[8:1],,,3/7,,,1h[16:3],,,4h[8:1],,3,5,,
{16}6-4[8:1],,,4/7,,,3-6[8:1],,,2/6,,,7-3[8:1],,,8/4,
{16},,2-7[8:1],,,3/7,,,8h[16:3],,,5h[8:1],,6,4,,
{16}3/6pp4[2:3],,,,3,,,,3,,,,3,,,,
{16}2,,,,2,,,,2,,,,2,,,,
{16}1,3,1,3,1,,7,5,7,5,7,,4,5,3,4,
{16}2,5,4,7,5,6,3,4,1,,7,5,,3,4,,
{16}1,7,,2,4,3,6,5,8,,3,5,,1-5[16:1],7,,
{16}1b/8b,,,,,,,,,,,,,,,,
{16},,,,,,,,4/5,,6,,7/8^5[8:1],,1,,
{16}2b-6[8:1]/8b,,3,,2/7-4[8:1],,,,1/7,,,3,4-1[8:1],,2,,
{16}7V58[4:1]/4,,8,,1-4[8:1]/7,,2,,1,,7,,6/5,,4/3,,
{16}2/1,,7^4[8:1],8,,4,7,,2,,3^6[8:1],1,,6,3,,
{16}8,,7,1,,6,4,5,3-8[8:1],,2-5[8:1],,,,,,
{16}7^5[8:1],,8,,7/1,,2,,3pp5[8:1]/4,,5q1[8:1]*v8[8:1],,3/6,,,,
{16},,7,,6/5,,2,,3/4,,6/5,,7/8^5[8:1],,1,,
{16}2b-4[8:1]/8b,,,,2<4[4:1]/5,,7,,8h[16:3],,,,8,,{32}2,1,8,7,
{32}6-1[8:1],5,4,3,{16}2,,4-2[8:1]/6,,5,,4/8,,7,,1-4[8:1]/6,,2,,
{16}1/8,,7,,6/5V36[4:1],,4,,3/5,,2,,1h[8:1],,{32}7,8,1,2,
{32}3-8[8:1],4,5,6,{16}7,,3/5-7[8:1],,4,,1/5,,3,,2-4[8:1]/8,,1,,
{16}2/5-7[8:1],,7,,1/5-1[8:1],,3,,5/8-4[8:1],,6,,3/8qq1[4:1],,2,,
{16}1>7[4:1]/8,,,,3,,,2,2-4[8:1],,1,,2/8,,6h[8:1],,
{32}2,1,8,7,6,5,4,3,2,1,8,7,6,5,4,3,8,1,2,3,4,5,6,7,4^1[8:1]/8,,,,,,,,
{16}4/7,,5-7[8:1],5,,,1/5,,3h[8:3],,8,,2,,4h[8:7],,
{16}5,,,,5,,,,5,,,,1^4[8:1],,,,
{16}1b/8b,,,,8V63[1:1],,,,8,,,,8,,,,
{16}8,,,,8,,,,8,,,,3-6[8:1]/8,,,,
{16}3pp2[8:5]/8,,,,8,,,,8,,,,8^5[8:1],,,,
{16}8bqq3[4:3]/1b,,,,1,,,,1,,,,1,,,,
{16}1V74[4:3],,,,1,,,,1,,,,1,,,,
{16}1-4[8:1],,,,1,,,,1-5[8:1],,,,1^4[8:1],,,,
{16}1bpp5[4:3]/8b,,,,8,,,,8,,,,8,,,,
{16}8-6[8:1],,8,,4-2[8:1],,4,,6-4[8:1],,6,,2,,2,,
{16}4,3,,6,5,7,1,8,2,,3,4,,6,5,7,
{16}7,,2,8,,1,4,3,3,6,1,7,,8w4[16:1],2,,
{16}8b/1b/8!s4[500#4:1]*z4[500#4:1],,,,,,,,,,,,,,,,
{16},,,,,,,,6/4,,7,,1/8^5[8:1],,2,,
{16}3b-7[8:1]/8b,,1,,3/8-4[8:1],,,,8/1,,,3,5-1[8:1],,1-3[8:1]/7,,
{16}6V84[4:1]/5,,4,,6<5[4:1],,5,,,,,,8^5[8:1],,1,,
{16}3b/8b,,1q5[8:1],1,,5,1,,8h[8:1],,6^3[8:1],8,,3,6,,
{16}1h[8:1],,3,2,5,4,7,,1/2-6[8:1],,3-7[8:1],,,,,,
{16}8-4[8:1],,1,,2-5[8:1]/8,,3,,2/8,,7>6[4:1],,6,,2h[16:3]/7,,
{16},,2V48[4:1],,8/1,,7,,5,,6,,7/8^5[8:1],,1,,
{16}2b-4[8:1]/8b,,1,,2<4[4:1]/5,,7,,8h[16:3],,,,8,,{32}2,1,8,7,
{32}6pp5[4:1],5,4,3,{16}2,,4qq5[4:1]/6,,5,,4,,7,,8,,3,,
{16}4/2-5[8:1],,1,,2/6qq6[4:1],,7,,1,,2,,3h[8:1],,{32}7,8,1,2,
{32}3,4,5,6,{16}1<2[4:1]/7,,2,,7h[16:3],,,,7,,1^4[8:1]/5,,8,,
{16}1b/5b-8[8:1],,7,,2^5[8:1]/5,,1,,2b/8b-4[8:1],,6,,3^6[8:1]/8,,1,,
{16}5bpp4[4:1]/3b,,8,,4,,,1,1-5[8:1],,2,,1/3,,2,,
{32}7b,8,1,2,3,4,5,6,7,8,1,2,3,4,5,6,1,8,7,6,5,4,3,2,5^8[8:1]/1,,,,,,,,
{16}5/2,,4-1[8:1],4,,,8/4,,6h[4:1],,2,,4>5[4:3],,6pp4[8:5],8,
{16},,,,,,,,,,,,,,,,
{1}1b/8b,
E
