&title=NEO WINGS
&artist=SOUND HOLIC feat. Nana Takahashi
&first=-0.015
&lv_5=14
&des_5=Arup.Hz
&inote_5=
(168){4},{8},,,3>6b[2:3],,,,1<6[1:1],
,,,,,,,,,,,6x<3[4:3],
,,,1>8b[16:13],
{16},,,,,,,,,,,,,,,,,,2x,
2x,5x,5x,3,4,3,4,2,5,
1,6h[8:1],,5,6,5,7,4,8,3h[8:1],,8,2,7,1,8,
2,7h[8:1],,1,7,2,8,1,7,2h[8:1],,4,2,5,2,6,
3,7h[8:1],,5,7,4,7,3,{8}6,{16}3,4,,6,{8}5,
{16}2,3,,7,{8}6,1x/8x,{16},,2,4,3,5,4,6,
5,7h[8:1],,5,7,4,6,3,5,2h[8:1],,4,2,5,3,6,
4,7h[8:1],,5,7,4,6,3,5,2h[8:1],,4,2,5,4,7,
5,7h[8:1],,5,7,4,5,2,{8}4h[8:1],{16}3,4,,6,{8}5,
{16}2,3,,7,{8}6,8bx/1bx-4[12:1],,5,,5,
,5,6,5/3,4,5/6h[8:1],,3/4,
3h[4:1],5,6h[4:1],4,3h[8:3],4,,4,
,4,5,6/4,3h[4:1],6,,4/6,
3,3/5,{16}6,4,5,4,{8}5,3/6-8[12:1],,3,
,3/1-4[8:1],8,7/1,6,7/5,,4-2[12:1],
7,4-8[8:1],5,4,6h[8:5],1,,2,
,3,6/4>5pp1[8:5],3/5,{2}2/4,
{8},,,2-5[8:1],8-4[8:1],2,8,1q5[8:1],
7,1<6[8:1],,3/1,{4}2>5[16:3],{8}6,7,
8p3[16:3],,,2,1-5[16:3],,,6,
{4}7V58[4:1],{8}3,1,2,1bx/8bx,5bx-1[8:1]/4bx-8[8:1],2bx/7bx,
{4}5bx/4bx,{8}B6/E6/A6/B3/E4/A3/D6/D4,E1f/A8/A1/D1/D2/D8,,2x/4x,3,4/6,
8/7h[4:1],{16}E2,E3,{8}E4,7x/5x,6,5/3,1/2h[4:1],{16}E8,E7,
{8}E6,2x/4xV68[16:3],,3,2,{16}2,1,{8}2,{16}7,8,
,2,{8}1,{16}6,8,,3,{8}1,{16}7,8,{8}7,{16}2,1,
,7,{8}8,{16}3,1,,6,{8}8,{16}3,1,2,1,{8}3,
{16}6,8,7,8,{8}6,1x/5x,{2}3xh[8:3]/7xh[8:3],
{8},4>1[12:1]/8<5[12:1],,4b/8b,,2v5[8:1],5V38[16:3],2,
{4}7-3[8:1],{8}7,1V35[8:1],5-2[8:1],1,,7,
{4}8-6[12:1],{8}8-4[8:1],2,8,2V48[16:3],,5,
{4}7V51[16:3],{8}4,2,,2b/1b,3b/4b,6b/5b,
{4}7b/8b,{16}1,8,{8}1-3[12:1],2/7-4[8:1],1-5[8:1],7,1,
{4}8w4[8:1],8,{8}2x/6x,3-8[8:1],4-7[8:1],3,
{4}4,{8}7x/8x,6/1,5/2,{16}2,4,2,4,3,5,
3,5,4,6,4,6,5,7,5,7,4,8,3,1,5,7,
3,6,4,7,3,8,{24}2x/1x,3x/8x,4x/7x,{8}5x/6x,7v4[8:1],4V61[16:3],7,
{4}2-6[8:1],{8}2,8V64[8:1],4-7[8:1],8,,2,
{4}1-3[12:1],{8}1-5[8:1],7,1,7V51[16:3],,4,
{4}2V48[16:3],{8}5,7,,7b/8b,6b/5b,3b/4b,
{4}2b/1b,{16}1,8,{8}1-5[8:1],2/7-4[8:1],1,7,2,
{4}8-6[12:1]/1-6[12:1],1b-3[12:1]/8b-3[12:1],1b/8b,{8}2>5[8:1],1,
{4}2,{8}7<4[8:1],1-3[8:1],7,1-5[8:1],,1-3[8:1],
4,1-5[8:1],7,1/8-6[8:1],7,8-4[8:1],3,8-6[8:1],
2,8-4[8:1],5,8,3,7,5/6,5/6,
1/3,2/5,4/7,6/1,3/8,4/5,{16}2,7,2,7,
1,8,1,8,{32}1,2,3,8,7,6,2,3,4,7,6,5,{8}1-4[8:1],4-1[8:1],1-6[8:1],
6-1[8:1],5,{4}5v2[8:1],5b/2xV86V47-5v8b[2:1],{8}3,3bxh[8:3],
{16},,,,,,8x,1x,8x,1x,{8}8x-5[8:1],5-8[8:1],8-3[8:1],
3-8[8:1],4,{4}4v7[8:1],4b/7xq1b[16:5],{8}5,5bxh[8:5],
{32},,,,A2,D3/E3,A3,D4/E4,A4,D5/E5,,D6/E6,A6,D7/E7,A7,D8/E8,A8,D1/E1,{16}A1,{8}2x-5[8:1],5-2[8:1],2-7[8:1],
7-2[8:1],6,{4}6v3[8:1],6b/3x-5-7-4-6-1b[16:7],{8}2,2bxh[16:5],
{16},,,,,,1x,2x,1x,2x,{8}1x-4[8:1],4-1[8:1],1-6[8:1],
6-1[8:1],5,{4}5v2[8:1],5bv8<1[16:7],{8}3,3h[16:5],
{16},,,,8,7,6,5,4,3,{8}2h[8:3],,,1h[8:1],
8h[8:1],7>8V61-3b[8:3],6h[8:1],,,,,5h[8:1],
3h[6:1],{24},7h[6:1],,,,4h[6:1],,,,{8}6h[6:1],{24},2h[6:1],,,,8h[48:11],
{48},,,,,,,,,,,,{16}B8,C,{8}B4,,(210)5/3h[#0.1428604],6h[8:1],2h[8:1],
7h[8:1],1h[#0.5],(168){16},,,,,,1,8,1,2,3,4,
2,3,4,5,{8}3h[8:1],4h[8:1],5h[8:1],6h[8:1],4h[8:1],7h[8:1],
2h[8:1],8,{16}1,8,1,8,{4}1,{16}2,3,4,5,
7,6,5,4,1,2,3,4,6/5,7,8,1,{8}3x/2x,6x/4x,
7x/8x,{16}2,3,4/5,6,7,8,{32}1,2,3,4,5,6,7,8,{4}Cf/1b-5[8:29],
,,,E8,
{8},E3,,,,,{4}E7,
{8},E4,,,,,{4}B1,
{8},B5,,,,,{4}3x/6x-1[2:1],
2,2,2,3-8[2:1],
7,7,7,{16}E7,B6,{8}B5,
{16}B3,E4,,E8,{8}B7,{16}E2,B2,,B6,{8}E6,{16}E3,B3,{8}B4,
{16}A6,D6,,D2,{8}A2,{16}D8,A7,,A3,{8}D4,{16}6,5,{8}6,
{16}3,4,,6,{8}5,{16}2,3,,7,{8}6,{16}3,4,2,5,
3,6,5,7,4w8b[8:1],6,,,,,,,{8}1x/7xv4[8:1],5/3-8[8:1],
7/1,3-6V48[8:3],,3x/7x,1,3,{4}5xV31[8:1],
{8}6,8-6[12:1],,8-4[8:1],3,8,{4}1V37[16:3],
{8}4,6V84[16:3],,1,{4}3,{8}4b/3b,2b/7b,
5b/6b,8b/1b,{16},,8,1,{8}8-4[8:1],7/2-6[8:1],8-3[8:1],2,
8,5xw1[8:1],,5,,3x/7x,5-2[8:1],6-1[8:1],
5,6,,1x/2x,4/5,8/7,{16}1,6,1,6,
3,8,3,8,2,7,4,5,1,6,8,7,2,5,3,4,
1,7,5,8,2,4,1,5,{24}2x/6x,3x/7x,4x/8x,5x/1x,,,{8}7/3-8[8:1],4/8V25[16:3],
3/6,7-4[8:1],,7,1-3[8:1],3-8-4[4:1],{4}1,
{8}7,5-7[12:1],,5-1[8:1],2,5,{4}4V26[16:3],
{8}1,7V51[16:3],,4,{4}2,{8}1b/2b,5b/6b,
7b/8b,4b/3b,{16},,7,1,{8}7-4-8[4:1],6/3-8[8:1],7,3,
,1-5[12:1]/7-5[12:1],,1b-3[12:1]/7b-3[12:1],,1b/7b,,2-5[8:1],
1,2,,7-4[8:1],1-3[12:1],7,{4}1-6[8:1],
{8}1/5-8[8:1],4,5/3-5[12:1],2,3/7-3[8:1],6,7/4-1[8:1],5,
4/6-4[12:1],7,6/2-6[8:1],3,2/7,8,4/7,4/7,
5/2,5/2,1/7,7/5,5/3,3/1,{16}2,8,2,8,
1,7,1,7,{32}1,2,3,4,5/1x,6,7,8,1/5x,2,3,4,{8}7xh[4:1]/5qq1[16:23],,,{4}7,
8h[16:3],{8}6,8h[16:3],,7,
{4}8-4[8:1],8x,{8}4xpp7[8:11],,,2,
{4}2,1h[16:3],{8}3,1h[16:3],,2,
{4}2,{8}8-4[8:1]/7-3[8:1],6/1,{4}7b/8b,{16}2,4,3,5,
4,6,5,7h[8:1],,5,7,4,6,3,5,2h[8:1],,8,2,7,
1,8,2,7h[8:1],,1,7,2,8,1,7,2h[8:1],,4,2,5,
4,7,5,7h[8:1],,5,7,4,5,2,{8}4,{16}3,5,,6,
{8}4,{16}2,4,,7,{8}5,{4}1x/8x,{16}2,4,3,5,
4,6,5,7h[8:1],,5,7,4,6,3,5,2h[8:1],,3,2,5,
4,7,6,8h[8:1],,1,8,6,7,4,5,2h[8:1],,3,2,8,
1,6,5,7h[8:1],,6,7,1,8,3,{8}4h[8:1],{16}2,4,,7,
{8}5,{16}1,3,,8,{8}6,{16}3,3/4,,6,{8}6/5,{16}2,1/3,
,7,{8}8/6,{16}1b,8b,1b,8b,
E
