&title=天使になりたいっ!
&artist=三月のパンタシア × ナナヲアカリ
&first=0.344
&des=Kurage
&lv_5=13+
&inote_5=(177)
{4}5/4-1[4:2],5,5,5,{16}2,3,4,5,6,7,8,1,{4}2xb/7xb,,
{4}7<5[8:1]/8p4[8:1],,2>4[8:1]/1q5[8:1],,36,5b<8[8:1]/4b>1[8:1],A4/E5f/A5/D5,,
{8}
7<4[8:1],,3-7[8:1],,6-1[8:1],,2,2-5[8:1],,8-4[8:1],8,1,,36,36,,
2-5[8:1],,6-2[8:1],,4-1[8:1],,8,8p5[8:3],,2,2,2,,45,6b/3b,,
2>5[8:1],,6-2[8:1],,3-8[8:1],,7,7-4[8:1],,1-5[8:1],1,8,,36,36,,
4b/5b-1[8:1],,75,,8b,7/1-4[8:1]*-6[8:1],,1b,,73,7<4[8:1]/3>8[8:1],73,,,B8/B4/Cf,,
{8}
1>5[4:1],,5<1[4:1],,1,,5,6-3[8:1],,2-7[8:1],,4,,5,46,,
7<3b[4:1],,3>7b[4:1],,7<3b[4:1],,3,,1-4b[8:1],8-5b[8:1],,,,2,2,A7,
B6,E5,E1,B2,A3,6h[4:1],,5,6,4>1[8:1]/7<4[8:1],,,,3,4<7[8:1]/2,,
1b-5[8:1],,8-4[8:1],,3-7[8:1],,8,8,1-4[8:1],4w8b[8:1],1b,Cf,,,{16}5x,,4x,,
{16}
63,,7,8,7,,16,,3,4,3,,47,,6,5,6,,14,,3,,58,,6,,34,,7,,56,,
2,1,2,,38,,6,5,6,,47,,3,,25,,6,,58,,3,,14,,6,,78,,6<1b[8:1]/2,,,,
{8}
3,3x<6[8:1],,8,8x>3b[8:1],,5,5xpp5[4:1]*qq5[4:1],,,,,3x/4x,,5>2[8:1]/6,,
8b-4[8:1],,1-5[8:1],,6-2[8:1],,1,1,8-5[8:1],5w1b[8:1],8b,Cf,,,{16}3x/6x,,,,
{8}
4-8[4:1]/5h[8:3],,,,5,,4/E2/B2,,5-1[4:1]/4h[8:3],,,,4,,5/E8/B7,,
1<6[4:1]/2h[8:3],,,,2,,1/E4/B3,,8>3[4:1]/7h[8:3],,,,7,,8/E6/B6,,
{4}4>1[4:2],E8,C,E6,5<8[4:2],E2,C,E4,
{8}3,3,7,7,4,4,6,6,{16}2,4,2,4,3,5,3,5,4,6,4,6,{4}5q2b[8:1]*p8[8:1],
{8}5b,,4<7b[8:1]*>1[8:1],,4b,,2-7[8:1]/6-3b[8:1],,
{1}2b/6b`Cf,
{4}A2/A1/D2,A7/D8/A8,A5/A4/E5f/B5/B4,,
{8}
2b/7b,,6h[8:1]/5,4,5/7h[8:1],3,4-2b[8:1]/8<5[8:1],,
48,,3h[8:1]/4,5,4/2h[8:1],6,5-7b[8:1]/1>4[8:1],,
15,,6h[8:1]/5,4,3/5h[8:1],2,1-6b[8:1]/4-7b[8:1],,
1b/4b`A7/E7f/A6,,,1x,{16}8h[16:3]/2,,,6h[16:3],,,4,,
{8}
4b<8[4:1],,A3/E3,,5-1[8:1],,A7/E7,8xh[4:1],
,E2/B2/A2f,A6f/B6/E6,4xh[4:1],,5-7[8:1],5,3-6[8:1],
,8-4b[8:1],8,3-6b[8:1],,1,1w5[8:1],,
1b`Cf,,7x/2x,36,4b>1[8:1]/5b<8[8:1],,A5/E5f/A4/D5,,
7xb/2xb,,5h[8:1]/6,7,6/3h[8:1],8,1>4b[8:1]/7<4[8:1],,
17,,4h[8:1]/3,2,3/6h[8:1],1,82,37,
4-1[8:1],5-8[8:1],4,5,1x>4[8:1]*<6b[8:1],,1x,,
A7/B7/Cf/B3/A3,,8xb,,1xbv4b[8:1]/7xbv4b[8:1],,,,
3-5[8:1],3,7-3[8:1],7,4-1[8:1],4,8,8,
2>5[8:1],6<1[8:1],2,6,,4-2b[8:1],4,6-3b[8:1],
,1-5[8:1],1,6-3[8:1],,8,8w4b[8:1],,
8b`Cf,,27,36,1<6[8:1]/8>3[8:1],,1-5[8:1]/8-4[8:1],,
1b/8b,,3qq5[8:3],,B2/E2/B1,,6-2b[8:1],,
6b/7b,,3qq5[8:3],,B2/E2/B1,,6,7,
8-5[8:1],,5,1-4[8:1],,4,8-4[8:1],5,
3,1,5,5qq5[4:1]*pp5[4:1],,,,,
3b/7b,,6pp4b[8:3],,B7/E8/B8,,3-7[8:1],,
3b/2b,,6pp4b[8:3],,B7/E8/B8,,3,2,
1<6[8:1],,1/5-1b[8:1],,2>5[8:1]/5,,2/8w4b[8:1],,
{8}A8/B8/Cf/B4/A4,,,,{16}1,8,1,,{4}2b/7b,
{16}3b/6b,,7,5,6,,3,4,{8}2,1<6[8:1],6,5h[4:1],,4-1[8:1],4,7x,,5,46,,
{8}2b-5[8:1]/4b-8b[8:1],,24,,1b,2/8w4b[8:1],,8b,,62,73,84,1-5[8:1]/5,,,,
