&title=アルメリアの鳥籠
&artist=a_hisa
&first=0
&des=Akts(thx to 岚雨_)
&lv_5=13+
&inote_5=(150)
{1}
,
{8}4-6[8:1]/3h[8:2],,,,
5-3[8:1]/7h[8:2],,,,
1/2,,
5-7[8:1]/4-8[8:1],,
,,
1,,
{8}4h[8:2]/2,,3,,
5/4h[8:2],,7,,
6/5,6,3/4,3,
5/7,6,2/4,3,
{16}5/7,,6,5,{16}6,,4,5,
{8}4w8[8:1],,4b,,
{8}2,,3,4,
5^3[8:1],,6,,
7,,6,5,
4^6[8:1],,3,,
{8}2-4[8:1],,
5,,6-4[8:1],,3,,
{16}2,,3,4,{8}3,5,
6-4[8:1]/4-2[8:1],,,,
{8}8,,6,
5,4^7[8:1],,4/3,,
1,,3,4,
5^2[8:1],,5/6,,
{8}7,8,1-5[8:1],2,
7-4[8:1]/1,6,7,,
{16}3,5,3,5,{16}4,6,4,6,
{8}5w1[8:1],,5b,,
{16}3/7,,,6,
6h[8:1],,5,,
4q8[8:1],,3,,2/4,,,,
{16}2/6,,,3,3h[8:1],,4,,
5p1[8:1],,6,,5/7,,,,
{16}7^5[8:1],,8,,1/7,,,,
3^1[8:1],,4,,3/5,,,,
{16}7,,6,5,6,,4,,
3-1[8:1]/5-7[8:1],,2,,3/5,,,,
{16}8b,,,3,
3h[8:1],,4,,
5w1[8:1],,4/6,,5,,,,
7b,,,6,
6h[8:1],,5,,
4w8[8:1],,3/5,,4,,,,
{16}2^5[8:1],,1,,8,,7,,
6^1[8:1],,5,,4,,3,,
{16}2b,3,4,5,8b,7,6,5,
1b-5[8:1],,,,1/5qq2[8:5],,,,
{8}6h[8:6],,,,,,,,6-4[8:1]/1,,6/2-5[8:1],,2/8-4[8:1],,8/4pp7[8:5],,
{8}2h[8:4],,,,,,1,2,3-1[8:1],,3/7-4[8:1],,7/3-7[8:1],,3/6,,
{8}6h[8:1]/8-4[8:1],,6h[8:1]/8,,6h[8:1]/3-1[8:1],,6h[8:1]/3,,
2h[8:1]/6-4[8:1],,2h[8:1]/6,,2h[8:1]/3-7[8:1],,2h[8:1]/3,,
8h[8:1]/2-4[8:1],,8h[8:1],,8h[8:1]/2-6[8:1],,8h[8:1]/2,,
{16}7/5,4,3,2,1/8,7,6,5,3/4,,7/8,,5w1[8:1]/6,,1/2,,
{8}5b<4[4:3],,,,,,5-1[8:1],,5b<4[4:3],,,,,,6,,7h[4:3],,6,,8,,1,,
{4}2b-6[8:1],2b/8b-4[8:1],5bw1[8:1]/8b,5b,
{8}2/8,
{16}3,1,3,,
3,2,3,,
3,4,3,,
3,5,
{8}3V57[4:1],,7V13[4:1],,4,,8-4[8:1],,
{8}8/5-2[8:1],5,1-6[8:1],1,3-8[8:1],3,7-4[8:1],7,
{16}1b,,,2b,,,3b,,4b/8b,,,,
{16}3V17[4:1],,,,7>3[4:1],,,,{16}6,,,,5,,4,,
3-5[8:1],,2,,3/6-2[8:1],,7,,
1w5[8:1],,,,1b,,,,
{16}3^1[8:1],,4,,5h[8:1],,,,
6^4[8:1],,7,,8h[8:1],,,,
3,,2,,1/8,,
{24}1/8,2/7,3/6,
{16}4z8[8:1]/5s1[8:1],,,,,,,,
{16}6<2[4:1],,,,2V86[4:1],,,,
3,,,,4,,5,,
6-8[8:1],,7,,6/2-4[8:1],,3,,
2/1w5[8:1],,8,,
1b,,,,
{16}3^6[8:1],,2,,1h[8:1],,,,
8^3[8:1],,7,,6h[8:1],,,,
6,,5,,3/4h[8:1],,
{24}8,1,2,{16}3h[8:1],,
{24}7,6,5,{16}4-8[8:1]/3,,,,
{16}1b,,2,3,
4bV28[4:1],,,,
8>4[4:1],,,,
7,,6,,
5-8[8:1],,4,,
5/2-5[8:1],,1,,2/7w3[8:1],,,,
7b,,,,
{16}1-5[8:1],,8,,1,,7,,
6^1[8:1],,5,,4,,3,,
2,,1^4[8:1]/8,,
2/7,,
{24}1/8,7,
6,{16}5w1[8:1],,,,
5b,,,,
{16}7>3[4:1],,,,
3V17[4:1],,,,
4,,,,
5,,6,,
7-1[8:1],,8,,
7/2-6[8:1],,3,,2/4w8[8:1],,,,
4b,,,,
{16}8,1,2,3,8b/4,,,,
8,7,6,5,4/8b,,1,,
4/2,,3,,
3-7[8:1],,3,,
5-1[8:1],,5,,
8-4[8:1],,8,,7-3[8:1],,7,,
{4}7b>7[4:8],,,,,,7,7,7>5[4:6],,,,5,,5<5[4:8]*-1[4:4],,,,,,,,5<5[4:6]*>5[4:6],,,,,,,,
{8}6,7,8,1,2qq5[4:3]/7,,,,6h[4:3],,,,,,,,
{16}4h[16:3],,,5h[16:3],,,6,,{8}6pp5[4:3],,,3,3h[4:3],,,,,,,,
{4}2/4,3,5/4,{8}6,6,7/5h[4:2],,8,,
{4}8^5[4:1],5^2[4:1],2^7[4:1],7p6[4:2],4h[4:3],,,,
{16}2/4,,3,,5/7,,6,,{16}3,5,3,5,2,4,2,4,
{8}2bV48[8:4],,,5,5,,6,,
7V15[8:4],,,2,2,,3,,
4^2[8:1]*^6[8:1],,,,8-2[8:1]*-6[8:1],,,,5s1[8:1]/4z8[8:1],,,,,,
6pp2[4:3],,3h[4:1],,,4,4,,5qq1[4:3],,8h[4:1],,,7,7,,6,,
{16}2,3,4,5,1,8,7,6,4,3,2,1,4z8[8:10]/8-4[8:1],,,,8b,,,,
{4},,,,,,
{16}2bV46[4:1]/7b,,,,6>2[4:1]/2b,,,,{16}7,,,,8,,1,,
2-5[8:1],,3,,2/8-4[8:1],,7,,
1w5[8:1],,1,,1b,,,,
{16}6-1[8:1],,7,,6,,2,,
4-1[8:1],,3,,4,,5,,
6,,7/8,,1/6,,
{24}7-4[8:1]/8,1/6,2/5,
{16}3v8[8:1]/4,,7b,,3b,,,,
{16}6v1[4:1],,,,1V75[4:1]/6b,,,,
2,,,,3,,4,,
5>1[8:2]/7,,8,,5/1,8,7,6,
5w1[8:1],,5,,
5b,,,,
{16}7-4[8:1],,8,,7,,1,,
2^5[8:1],,3,,1,,8,,
7,,6,,5/4,,
{24}4/5,3/6,2/7,{16}1/8,,
{24}1/8,2/7,3/6,{16}4/5h[4:1],,,,
{16}8b,,1,2,
3b-6[8:1],,,,
6>2[4:1]/3b,,,,
7,,8,,
1-5[8:1],,8,,
7-3[8:1],,6,,4w8[8:1],,4,,
4b,,,,
{16}2-5[8:1],,1,,2,,8,,
7^2[8:1],,6,,5,,4,,
3,,2^5[8:1]/1,,
8/3,,
{24}1/2,8,7,{16}6w2[8:1],,6,,
6b,,,,
{16}8-3[8:1],,,,
3V17[4:1]/8b,,,,
4,,,,
5,,6,,
7-1[8:1],,8,,
7/2-6[8:1],,3,3,2/4w8[8:1],,4,,
4b,,,,
{16}8,1,2,3,8b/4,,8b,,
8,7,6,5,4/8b,,8b,,
1,,2/4,,
3-8[8:1],,3,,
7-3[8:1],,7,,
1-6[8:1],,1,,5-1[8:1],,5,,8-4[8:1]/5,,8,,7-3[8:1]/8,,7,,5w1[8:1]/7,,,,5b,,,,
{16}7,5,6,6,3,4,2,2,{32}7b,6,5,4,3,2,1,8,7b/2b-6[8:1],3,4
,5,6,7,8,1,2bV46[4:3]*V86[4:3],
