&title=Testify
&artist=void (Mournfinale) feat. 星熊南巫
&first=0.04
&des=伍舟之雨
&lv_5=14+
&inote_5=(178)
{1},
{8},,,,,,{32}A2,B2,B6,A6,,,,,
{16}Cf/8bx<1[2:3]*-4[4:3],,,,,,,,,,,,,,,,
{16},,,,,,,,,,,,,,,,
{16}8<1[2:3],,,,,,,,4-8[4:4],,,,,,,,
{16},,,,,,,,,,,,,,,,
{16},,,,2h[8:2],,,,4h[8:2],,,,5h[4:1],,,,
{32}A8,D8,,,,,,,{16},,7h[32:5],,{32}4x,5xh[32:7],{16},,,4h[4:1],,,,
{32}A2,D3,,,1x<4[4:1],,,,{16},,,,,,,,{24}2,1,8,7,6,5,
{16}4/8b,,,,2/6-1[8:1],,7,,3b,,,,2-5[8:1]/8,,3,,
{16}6b,,,,3/6-2[8:1],,7,,1b,,,,12,,38,,
{16}7b/4b,,,,2-6[8:1]/5,,7,,1b,,,,8-5[8:1]/5,,3,,
{16}1b,,,,1-4[8:1]/4,,6,,8b,,,,7>5[8:16]/5,,3/5V36-2[8:15],,
{16}1b,,,,,,,,,,,,,,,,,,,,,,,,,,,,,,,,
{16},,,,,,,,,,,,1,,1,,37,,64,,3,2,1,8,5,6,7,8,4,3,2,,
{16}7x,,7-4[8:1],,8,,1,,2-6[8:1],,2,,8,,8,,
{16}8/5-2[8:1],,8,,8,,8,,8/3-5[8:1],,8,,8,,8,,
{16}7x,,7-1[8:1],,6,,4,,2-6[8:1],,2,,8,,8,,
{16}8/5-2[8:1],,8,,8,,8,,8/3-5[8:1],,8,,8,,7,,
{16}5x,6,4-8[8:1],5,3,,2,,1-5[8:1],,1,,7,,7,,
{16}7/4-1[8:1],,7,,7,,7,,7/8-3[8:1],,7,,7,,7,,
{16}6,,6-2[8:1],,2,,1,,8-3[8:1],,8,,7,,7,,
{16}7/4-1[8:1],,7,,7,,7,,7/8-4[8:1],,7,,8<5[8:1]/7,,7>3[8:1],,
{16},,,,7bh[8:1],,8h[8:1],,1h[8:1],,2q4[8:3],,,,4,,
{16}4p8[16:3],,,,7,,{32}7,6,5h[32:10],,{16},,,,1,2,3,4,
{16}5/1b,,7-4[8:1],,26,,,,8b,,6-2[8:1],,3x/7,,,,
{16}4b-1[8:1],,,,8,,,,2,4,3,5,4,7,5,6,4,3,2,1,8/7bh[8:2],,,,3,2,1,8,3,4,5,6,
{16}2-6[8:1],,,,2b/1h[4:1],,,,4,3/8x,2/7x,1/6x,{24}5x,4x,3x,2x,1x,8x,
{16}3bV51[8:2]/7x,,,,5,,7h[8:2],,,,8,,8,1,2,3,
{16}4/8bV64[4:1],,,,5,,2h[8:2],,,,3,,3-6[8:1]/1-4[8:1],,,,
{16}1b/3b,,,,7,,8/4,,3,2,1h[8:1],,5,6,7h[8:1],,
{16}8,1,2,3,5-8[8:1],,5,,4,3,2,1,7-4[8:1],,7,,
{16}1,,1,2,3h[8:1],,7,6,5h[8:1],,3h[8:1],,4h[8:1],,2h[8:1],,
{16}1,8,7,6,5,,1,8,7,6,5,,8,,1,,
{16}26,,7,,8,1,2,3,8,7,2/6,,2V48[4:1],,5,,5,,,,7,,7,,8,1,2,3,8,7,6,5,
{16}4V26[4:1]/3,,1,,,,7V51[4:1],,1,,,,4,,2,,
{16}8,3,6,5,7,5,6,2,4,3,4,2,{24}6xb,5xb,4xb,1xb,2xb,3xb,
{16}7,,7V51[4:1]/8,,,,17,,{32}A2,E3,D3,A3,E4,D4,A4,,{16}8,,7/8-4-2[4:1],,,,85,,{32}A6,E7,D7,A7,E8,D8,A8,,{24}1x,2x,3x/7x,4x/6x,5xhb[24:8],,,,,,,,
{16}2,,2V48[4:1]/1,,,,82,,{32}A7,E7,D7,A6,E6,D6,A5,,{16}1,,2/1-5-7[4:1],,,,14,,{32}A3,E3,D3,A2,E2,D2,A1,,{24}8,7,6,5,4,3,8,7,6,5,4,3,
{16}2x/6bh[8:3],,,,,,8h[8:3],,,,,,{12}4h,2,2,
{12}1h,4,4,5h,1,1,8h,5,5,6h,1,1,
{16}6,8,7,1,8,2,1,3,4,2,5,3,6,4,7,5,
{24}8,,,2,1,2,1>7[8:3],,,38,,,{16}2h[4:1],,,,,,,,
{16}1x,,1-5[8:1],,,,5x/1,,8V26[8:3],,,,3x-5[8:1],,,,
{16}3x,,,,7V53[16:3],,5xV31[8:1],,1-6[8:1]*-5[8:1],,1,,,,,,
{16}4x/7xqq3[2:3],,4x-1b[8:1]/7x,,,,,,,,,,,,,,
{16},,,,,,,,,,,,,,,,
{16}8x,,8-4[8:1],,,,4x/8,,1V73[8:3],,,,6x-4[8:1],,,,
{16}6x,,,,2-6-8[4:1],,6x,,8-3[8:1]*-4[8:1],,8,,,,,,
{16}5x/2x,,2x-6b[8:1]/5x,,,,6V47[8:3]/2x,,8,,,,7x-3-8-2[8:5],,,,
{16}8h[4:3],,,,,,,,,,,,{24},,,,,,
{16}7x,,7-4[8:1],8,6,,1,,2-6[8:1],,2,,82,,8,,
{16}8/5-2[8:1],,8,,85,,8,,8/3-6[8:1],,8,,83,,8,,
{16}7x,,7-1[8:1],5,6,,4,,2-6[8:1],,2,,82,,8,,
{16}8/5-2[8:1],,8,,85,,8,,8/3-6[8:1],,8,,83,,7,,
{16}5x,,4-8[8:1],6,3,,2,,1-4[8:1],,1,,71,,7,,
{16}7/5-2[8:1],,7,,75,,7,,7/8-3[8:1],,7,,78,,7,,
{16}2x,,2-5[8:1],1,3,,7,,8-4[8:1],,8,,82,,2,,
{16}2/5-8[8:1],,2,,25,,2,,2<7[8:1]/1-5[8:1],,3,,2b/1b,,,,
{16}6,,8-4[8:1],7,,1,8,,3,,1-5[8:1],2,,8,1,,
{16}6,,8-4[8:1],7,,1
,8,,3,2,1,8,3,4,5,6,
{12}1,1,1,8,8,8,{16}2,4,3,5,3,1,2,8,
{16}1,7,5,6,4,6,5,7,1,8,3,8,1,6,2,7,
{16}3,,1-5[8:1],2,,8,1,,6,,8-4[8:1],7,,1,8,,
{16}3,,1-5[8:1],2,,8,1,,6,,{24}8,1,2,7,6,5,1,2,3,
{16}8,,2,1,2,8,3,,74,,6,5,7,8,6,1,
{16}7,,3,4,3,5,2,,{16}16,2,3,4,58,7,6,5,
{16}42,,3,4,3,,35,,74,,6,5,6,,46,,
{16}25,,3,4,2,,25,,46,,7,8,6,,16,,
{16}25,,25,,34,,71,,{16}3,5,2,1,4,6,8,7,
{16}1h[4:4],,,,,,,,{24}A3,B3,C,B7,A7,,,,,,,,
{16}5,,5w1[8:1],,,,,,,,2,8,3,7,4,6,
{16}1,7,2,6,3,5,4,6,5,7,5,7,2,4,2,4,
{16}1b-5[8:1],,,,1b/7b-3[8:1],,6,,1b-6[8:1]/7b,,,,1b/4b,,,,
{12}8b,8,8,7b,7,7,{16}1,6,2,5,3,4,1,,
{16}7,6,7h[16:3],6,,,2,3,2h[16:3],3,,,7,8,6,1,7,2,8,3,4,2,6,5,{24}A7,E8,E1,A2,B2,C,A5f,E5,E4,,,,
{12}3,3,3,1,1,1,8,8,8,6,6,6,
{16}5,4,3,2,18,7,6,5,{24}A2,E2,E1,A7,B7,C,A4f,E5,E6,,,,
{16}8,1,7,,3,4,2,4,3h[8:1],,1,2,8,1,7,,
{16}6,5,7,,3,4,2,5,4,7,5,6,1,8,3,4,
{16}1,7,2,8,{12}3,3,43,{16}8,2,7,1,{12}6,6,65,
{16}1,7,2,8,3,8,1,6,{24}1,2,3,8,7,6,2,3,4,7,6,5,
{16}2,4,3,7,4,5,3,5,4,8,5,6,5,7,4,8,
{12}3,3,3,1,1,1,8,8,8,6,6,6,
{16}4,1,3,8,2,7,1,6,2,5,3,6,{24}4,7,4,7,4,7,
{16}3,8,2,1,3,8,4,7`,3,6,2,5,{32}1,8,7,6,5,4,3,2,
{16}8x<5[8:1]/1x>4[8:1],,,,{16}8b/1b,,,,2-5[8:1],1,3,8,2,,7,,
{16}1-6[8:1],8,2,6,1,,4,,8,7,1,6,2,5,3,4,
{12}2,2,4,6,6,5,{16}8,7,1,6,2,5,3,4,
{16}1,2,3,4,56,7,8,1,5,4,3,2,18,7,6,5,
{16}3>8b[8:1]*<6[8:1]/4,,,,A2f/D2/A1/D1/A8/A4f/D5/A5/A6/D6,,,,7-4b[8:1],,2-6[8:1],,7,,2,,
{16}8-4b[8:1],,1-6[8:1],,8,,1,,7-3-6[4:1],,2-8[8:1],,7,,2,,A6/D7/D8/A8/A7f,,,,1-5[8:1],5,2,4,1,,6,,4/8,,2/6,,1,,7,3,7,,2,,
{24}1,8,7,2,3,4,8,7,6,3,4,5,{16}7b,7,1-5[8:1],8,3,4,1,,6,6,2-6[8:1],8,3,4,2,,
{16}5,5,1,7,2,6,3,5,2,8,3,7,4,6,2,6,
{16}5,,8,7,8,6,4,5,2,1,3,1,4,5,3,6,4,,8,5,8,5,7,,1,4,1,4,2,,16,,
{16}7x-5b[12:1],,8x-4[12:1],,E2/A2f/B2/D3,,,,1xw5[8:1],,,,1b,,,,
{16}2x-6b[12:1],,1x-5[12:1],,E8/A7f/B7/D7,,,,8xw4[8:1],,,,8b,,,,
{24}1,7,1,7,1,7,2,6,2,6,2,6,{16}3,5,{24}1,8,7,6,5,4,3,2,1,
{12}6,6,6,8,8,8,1,1,1,3,3,3,
{8}5<4[2:3],,,,,,,,5<4[2:3],,,,,,,,5<4[2:3],,,,,,,,2<6b[2:2],,,,,,,,
{16}4h[8:2],,,,,,,,5h[8:2],,,,,,,,3h[8:2],,,,,,,,6h[8:2],,,,,,,,
{16}B3`B4,,E2/A2,,,,B8,,E7/A6,,,,E3/A3,,B1,,
{16},,E8/A7,,B6`B5,,,,{32}1,2,3,4,5,6,7,8,{32}1,2,3,4,5,6,7,8,
{12}1b/B5f/B4,,,{12}27,27,27,{16}3,4,1,8,5,6,8,7,
{24}1,2,3,74,6,5,2,3,4,85,7,6,{12}3,3,13,6,6,86,
{16}3h[8:1],,{24}1,8,7,6h[8:1]/4,,,8,1,2,3h[8:1]/5,,,1,8,7,26,3,4,7,6,5,{12}14,1,1,8,8,8,{16}2-6b[12:1],7-3[12:1],3,6,,,,,
{32}1,8,1,8,1,8,1,8,{16},,2xbh[4:1]/7xbh[4:1],,
{16},,,,3,6,4,7,{12}5,6,74,2,1,38,7,8,16,3,4,25,{16}8,,{24}1,7,1,7,,,26,,,{16}3,4,1,8,5,6,8,7,{24}1,,,8,2,8,2,,,73,,,{32}1,2,3,4,1,2,3,4,8,7,6,5,8,7,6,5,
{16}1b,,1,,7-4[8:1]/3-8[8:1],,1,,3/7-3[8:1],,,,1/7,,1,,48,,8,,2-5[8:1]/6-1[8:1],,8,,2-6[8:1]/6,,,,82,,8,,{32}1b/8b,2b/7b,3b/6b,4b/5b,
