&title=Do It!
&artist=House Rulez
&first=0.02
&des=做它!Shangle!
&lv_5=13+
&inote_1=
&inote_2=
&inote_3=
&inote_4=
&inote_5=(129)
{1}
,
{16}
7-3[8:1],,,,
{8}
,
{16}
1h[8:5],,,,4h,,,4h,,,4h,,,,,,,,1h/2h,,,,,,2h/3h,,,,2h/3h,,,,
5h[8:5],,,,1h,,,1h,,,1h,,,,,,,,7h[8:1],,4v1[8:1],,,,2v7[8:1],,,,1,,,,
1b,,8,,1,,3,3,,8,,,5h`6h,,5h`6h,,7h[8:3],,,,3,,1,,6
,,8,,5,,6s2[8:10],,5h[8:1],,,,4,,4,,,5,,,3,,3,,4,,3,,4,,5,,1,1,1,1,8-6[8:1],,
{16}
,,2-4[8:1]/8,,1,,2/8-6[8:1],,7,,2h[16:1],,,,2/8>3[8:1],,8,,8/6h[8:2],,,,1-3[8:1]*-4[8:1],,8,,1-7[8:1]*-6[8:1]
,,,,1-5[8:1],,,,1/7h[8:1],,,,3-1[8:1],,2,,5h[16:1]/3q7[8:1],,,,5-8[8:1]/3,,4,,1h[8:2]/5,,,,7p2[16:3],,,,1pp4[16:5],,,,7,,,,
{16}
7-5[8:1],,6,,7/1-3[8:1],,8,,7h[16:1],,,,7/1<6[8:1],,1,,1/3h[8:2],,,,8v6[8:1]*-5[8:1],,1,,8v2[8:1]*-3[8:1]
,,,,8-4[8:1],,,,8/2h[8:1],,,,6-8[8:1],,5,,4h[16:1]/6v5[8:1],,,,6/4-1[8:1],,3,,7h[8:2]/4,,,,3,,2,,8,8,8,8,1h[8:1],,,,
{8}
4/8h[8:1],3,3h[8:1]/7,6,2/6h[8:1],1,1h[8:1]/5,4,
{16}8h[8:1]/4,,4,8h[8:1],,4,8,,4q2[4:1]/8q6[4:1],,,,,,,,
{8},4,4h[8:1]/8,7,3/7h[8:1],2,2h[8:1]/6,5,
{16}1h[8:1]/5,,5,1h[8:1],,5,1,,5V36[4:1]/1V72[4:1],,,,,,,,
{8},1/5h[8:2],8,7,6h[8:1]/5,4,3h[8:3]/4,5,6h[8:1],,
4h[8:1]/5,6,7h[8:1]/8,1,2h[4:1]/1,8,
7,7h[8:1],8,8h[8:1],1,1h[8:1],2,2,2h/3h,2h/3h,2h/3h,2h/3h,2v7[8:1]/3q8[8:1],,23,,
{16}
6,4,,7,5,6,1,,3/6-2[8:1],,2-6[8:1]/5,,16,,3,,
4,4,,6,4,5,8,,6/4p8[8:1]*v7[8:1],,53,,4,,,,
6,4,,7,5,6,1,,3/6-2[8:1],,2-6[8:1]/5,,16,,3,,
{8},1/5h[8:2],8,7,6h[8:1]/5,4,3h[8:3]/4,5,6h[8:1],,
4h[8:1]/5,6,7h[8:1]/8,1,2h[8:3]/1,8,7h[8:1],,
78,12,56,34,5/6v5[8:1],45,,,1/2V83[8:1],18,,,
7/5h[8:1],,8q5[8:1]/5-2[8:1],,5-8[8:1]/8>5[8:1],,8p1[8:1]*p1[8:1],,1,,
{32}
1/4-7[8:1],8,7,,,,,,
1/4,2,3,,,,,,
1/4-7[8:1],8,7,,,,,,
1/4,2,3,,,,,,
1/4-7[8:1],8,7,,,,,,
1<6[8:1]/4,2,3,,,,,,
{8}
1>3[8:1]/4,,1/6,,
{32}
1/8,7,6,,4-8[8:1],,,,,,,,4/5-1[8:1],6,7,,,,,,45,3,2,,,,,,5h[32:1]/4,,,,,,,,5/6h[32:1],,,,,,,,3h[2:1]/4h[32:1],,,,7,,,,1,,,,4,,,,6,,,,
{32}
6/3-8[8:1],7,8,,,,,,
6/3,5,4,,,,,,
6/3-8[8:1],7,8,,,,,,
6/3,5,4,,,,,,
6/3-8[8:1],7,8,,,,,,
6<8[8:1]/3,5,4,,,,,,
{8}
6/3>1[8:1],,6s2[8:8]/3,,1h[8:2]
,,,,,,,,{16}6h,,,7h,,,8h,,
{8}
2h[4:1],,7h[4:1],,
{16}1b,,8,,1,1,,,8h[16:3],,,1h[16:3],,,,,
{16}1,,7,,2,2,,,7h[16:3],,,2h[16:3],,,,,
{16}2,,6,,3,3,,,6h[16:3],,,3h[16:3],,,,,
{8}3h[8:1]/6,8,3/6h[8:1],4,{16}3/6,,3,5h[16:3],,,2,,
{16}1h[16:2],,8,,4,7,5h[16:2],,6h[16:3],,,2h[16:3],,,7,,
{16}2h[16:2],,7,,3,6,4h[16:2],,5h[16:3],,,3h[16:3],,,6,,
{16}4h[16:2],,6,,3,5,4h[16:2],,5h[16:3],,,4h[16:3],,,5h[16:2],,
{32}8,7,6h[32:6],,,,,,7,6,5h[32:6],,,,,,3,4,5h,,,,7,,{16}8-5[8:1]*-4[8:1],,6,,
{8}8b,,7h[8:1],,6v8[8:1],6,1-4[8:1]*-5[8:1],,
{8}1b,,2h[8:1],,3v6[8:1],3,8-5[8:1]*-4[8:1],,
{8}8b,,6,5,6bv8[8:1],6,1-4[8:1]*-5[8:1],,
{8}1b,,3b,3,3b-6[8:1],3,8b-5[8:1]*v3[8:1],,
{8},,2b,,6-1[8:1]/7h,5,2b,,
4v1[8:1],,2b,,5h/4-8[8:1],3,2b,
{16},3,3h[16:3],,,4,4h[16:3],,,5,5h[16:3],,,6,6h[16:3],,,8,6b/8,,,,2h[8:1]/1,,,,78,,78,,1/8-4[8:1],,1,1,
{16}
8b,,,3,3,,1h[8:1],,5p1[8:1],7,3,,6h[8:1],,,,
3,,5,5,7,,1h[8:1],,5-8[8:1],7,3-7[8:1],,,,,,
1b,,5,5,7,,2h[8:1],,6p2[8:1],4,8,,1h[8:1],,,,
8,,5,5,2,,5-7[8:1],,4-2[8:1],4,5-1[8:1],,,,,,
4b,,7,8,6,,4h[8:1],,1q5[8:1],3,7,,8h[8:1],,,,
8,,2,1,4,,5h[8:1],,8-4[8:1],7,5-2[8:1],,,,,,
8b,,1,7,5,,6h[8:1],,3-7[8:1],4,1,,2h[8:1],,,,
1h[8:1]/8h[8:1],,,18,1h[8:1]/8h[8:1],,,18,1h[8:1]/8h[8:1],,,,1b/8b,,,,
{32}
1/8-4[8:1],7,6,,,,,,
8/1-5[8:1],2,3,,,,,,
1/8-4[8:1],7,6,,,,,,
8/1-5[8:1],2,3,,,,,,
1/8-4[8:1],7,6,,,,,,
8/1-5[8:1],2,3,,,,,,
{8}
6-8[8:1]/1,,64,,
{32}
7/4,3,2,,8<6[8:1],,,,,,,,8/2<8[8:1],3,4,,,,,,72,6,5,,,,,,3h[32:1]/6<8[8:1],,,,,,,,6/2h[32:1],,,,,,,,6,,,,6>4[8:1]/2<8[8:1],37,48,,,,,,26,,,,,,,,
{32}
4/8-5[8:1],1,2,,,,,,
8/4<6[8:1],3,2,,,,,,
4/8-5[8:1],1,2,,,,,,
8/4<6[8:1],3,2,,,,,,
4/8-5[8:1],1,2,,,,,,
8/4,3,2,,,,,,
{8}
2v4[8:1]/7,,26,,
{32}3/6,7,8,,2>4[8:1],,,,,,,,2/7>1[8:1],6,5,,,,,,47,3,2,,,,,,
{8}7h[32:1]/4h[2:1],1,7,5,6,6h/7h,6h/7h,6s2[8:6],,,,,,,,3,1b,
E
&inote_6=
