&title=To the Milky Way
&artist=黑魔
&first=0.02
&des=ペースト絵
&des_5=ペースト絵
&lv_5=14
&inote_5=(186){4},,,,{8}2h[4:1],
4,5,6,,6,,5h[4:3],
,4,3,3,2h[4:1],{4},{8}6,
5h[8:1],7h[8:1],,4h[2:1],,5<1>2>3<4[8:7],{1},{4},{8}7h[4:1],
5,4,3,,3,,4h[4:3],
,5,6,6,7h[4:1],{4},{8}3,
,2,3,5h[8:3],,4s8-2[8:7]*z8-6[8:7],,4,
{1},{8}3/6h[8:11],
2,1,1<5[16:3],{4},{8},4,
,2,2,1,{4}8h[8:11],{8}6,5,
4,4,5,6,,6<4[8:7],{1},{4},{8}6/3h[8:11],
7,8,8V25[16:3],{4},{8},4,
,6,6,7,8h[8:9],4,4,5,
,5,4,3,,3z7v5[8:7]*s7v1[8:7],{4}3,
{1},{8}3/5,
5/2h[4:1],{4}5,{8}6h[4:1],3,,3h[4:1],
{4}5,{8}7h[4:1],4,,4,,6/3,
{4},6/4,{8}5,4,3h[8:5],4,
,5,{4},{8},5,{4},{8}4,
3,5,6,3,4,7,5,
3,4,3,5h[8:3],,3,2,4/3,
{4},4/3,{8}5,4,6,3,
,5/4,{4}3h[8:5]/6h[8:5],{2},{1}7/2bx,
{4}E8,B5,B4,E2,
E7/B7,{8}B3,B2/E3,,B6,C,B8/B1/E1,
,Ch[8:5],{4},,,{8}2bx/5,
{16}4,3,{8}4,6bx/5,{16}7,8,{8}7,2bx/6,{16}4,5,
3,6,2,7,{8}1,2/8-3[8:1],{4},{16}4,{8},{16}6,
{8},5/4,{4}3-8[8:1]/6-1[8:1],{16}3bx/6,{8},{16}7-4<7[16:9]/2-5>2[16:9],{8},6bx/3bx,
E7/B6/E3/B3,{4},,{16}4,5,{8}4,6/3,
8/2bx,{16}6,5,{8}8,7/2bx-8[8:1],5bx,2-5[8:1],6,{16}2bx,6,
{8}1,7bx/8,1/6bx,2h[4:1],5,4-6[8:1],{16}3,2,{8}4,
1h[4:1],7,6,5h[4:1],4v1[8:1],1V35[8:1],{4}5<2[2:1],
,,{8},{16}7,8,{8}7,6/1,
{16}5-8[8:1],{8},{16}3,5-2[8:1],{8},{16}4,{8}5<1[8:1],6,2x-5[8:1],4,
{4}2bx/6-2[8:1],6bx/3x-8[8:1],3/7bxw3[8:1],7bx,
{16}5x,3,4,2,3h[4:1],5,6,7,8-4[8:1],3x,7,2,{4}8x,
{16}1bx,{8},{16}8/2bx,{8},7/3bx,,{16}5,4,{8}5,3/6,
1/7bx,{16}3,4,{8}1,2/7bx-1[8:1],4bx,7-4[8:1],3,{16}7,3,
{8}8,2bx/1,8/3bx,7h[4:1],4,5-3[8:1],{16}6bx,7,{8}5,
8h[4:1],2,3,4h[4:1],5v8[8:1],8V64[8:1],{4}4>7[2:1],
,,{8},{16}2,1,{8}2,3/8,
{16}4bx-1[8:1],{8},{16}6,{8}4-7[8:1],8,{16}4>1[8:1],{8},{16}5,{8}4-8[8:1],8,
{16}4-1[8:1],{8},{16}6,{8}4<7[8:1],8,4,{16}8x,2,{8}2,8,
{16}4,8,5,7,6h[4:1],4,3,2,1,6,2,7,1,8,2,7,
1,8,2,7,2b,7,2,7,{8}2b,{16}3,6,{8}1,5/2,
2bx/6h[1:2],{16}1,2,{8}3,3x,1,{16}1,2,{8}3,3x,
1,{16}1,2,{8}3,3x,3,{16}3x,2,1,8,7,5,
{8}4,6/3,6/3,6/2,6/1,6/1,6/8,{16}6/8,5,
4,1,4,1,4,1,4,2,5,3,6,4,7,5,{8}8,
1x/7,7/1,{16}6,5,6,5,{8}3x/8,8/3,{16}2<7[8:1],1,2,1,
{8},6,{16},4/5,{8},{4}5/2,3h[16:1]/4h[16:1],
{8}8x/2,2/8,{16}3,4,3,4,{8}6x/1,1/6,{16}7>2[8:1],8,7,8,
{8},3,{16},5p4[16:3]/4q5[16:3],{8},{2}5/4,
{1}5xh[1:4]/4p1q4[8:29],
,,,6pp1qq4[4:15],
,,,{8}7-4[8:1],
7,,3-8[8:1],{4}3,{8}6-1[8:1],6,
,2p6[8:1]*q6[8:1],,2,,3/7,{4}7,
{8}2-5[8:1],2,,6-1[8:1],{4}6,{8}3-8[8:1],3,
,7q3[8:1]*p3[8:1],,7,,6/2,{4}2/6h[4:1],
{8}2,5/3,E6,B5,B4,E4,E6,B5,
B5,B4,E6,B5,B4,E4,E6,B6,
{12}2,4,3,7,5,6,2,4,3,6,5,7,
{2}2h[4:1],{16}B6,B5,E5,B4,{4}B3,
4/5,4/5,{16}5/4,{8},{16}4/5,{8},5/3,
{16}6/4,{8},{16}5/4,{8},4,4/5,{16}5,3,{8}4,5,
3/2,3,2/3,{16}2,4,3,4,3,5,4,6,5,7,
{8}5,{16}5,E7,{8}5,5,5,{16}5,B7,{8}5,5,
5,{16}5,B8,{8}5,5,5,{16}5,A1,{8}5,5,
5,{16}5,E7,{8}5,5,5,5,{16}6,6,{8}4x,
5/4,{16}3,E3,{8}4x,4,4,{16}4,B2,{8}4,4,
4,{16}4,B1,{8}4,4,4,{16}4,A8,{8}4,4,
4,{16}4,E3,{8}4,4,4,4,{16}4x,3,5,2x,
3bx/5,{8},{16}2bx/1,{8},8/7bx,{16},6bx/5,{8},4bx/3,5/2,
7bx/B4,7,7/E3,7,7/B1,7,7/C,7,
7/B5,7,7/B4,7,7/E3,7,7/B1,7,
7/B6,7,7/E5,7,7/B3,7,7/E2,7,
7/C,7,7/B2,7,{16}7,1,6,2,{8}5,{16}5,3,
6,4,2,6,{8}3x,2,8x/1h[32:1],7,6,5,
4x/3h[32:1],2,5,6,7x/5h[32:1],{16}6,3,{8}4x,3,
{2}4x/2h[1:2],{8}E7,B6,{4},{8}A7,
E7,B6,B5,B4,B3,B6,E5,
{1}C,
,{4},,{8},{16}4x,
5x,{8}4x,5x,
3x/6,5h[32:1],4x,3x,{4}4x/6h[4:1],{8}4x,{16}5x,4x,
{8}5x,4h[32:1],3h[8:1],6h[8:1],{16},4x,{8}5h[8:1],{4}3h[8:1],
{8}6x/4h[32:1],5x,4x,3x/5h[32:1],4x,5x,6x/3h[32:1],4x/5,
5h[16:7]/4h[2:1],{4},,{16}6,3,{8}6,2/7,
{16}1,8,1,8,1,8,1,8,2,7,2,7,2,7,2,7,
3,6,3,6,3,6,3,6,3,6,3,5,2,4,1,3,
{8}1/5,{16}6,5,{8}7,5/8,7/4,5/2,{16}3,4,2,4,
1,5,2,6,4,7,4,8,{8}3x,{16}5,4,{8}6,7,
1b/8,{16}2,7,{8}3,6/5,4/7,6/5,3/4,3/2,
{4}5b/4-7[8:1],4b/8-3[8:1],8b/5-2[8:1],5/2b,
{16}1,2,1,2,8,7,6,5,{8}4/2-5[8:1],{16}2,3,{4}2<5[2:1],
{16}2b,{8},{16}3b,{8},4b,,{16}6,4,{8}5,3/6,
1b/7,{16}3,4,{8}1,2/7bx-1[8:1],4b,7-4[8:1],3,{16}7bx,3,
{8}8,2bx/1,8/3b,7,4,6/5bx-3[8:1],{16}6,7,{8}5b,
8,2,3/4,4h[4:1],5bxv8[8:1],8bxV64[8:1],{4}4bxz8v3[2:1]*s8v5b[2:1],
,,{8},{16}2,1,{8}2,3bx/8,
4b-1[8:1],{16}8,7,{8}4-7[8:1],8,4b>1[8:1],{16}1,8,{8}4-8[8:1],8,
4b-1[8:1],{16}7,7x,{8}4<7[8:1],8,4b,{16}8x,1,{8}1,8,
{16}4,7,5,6,6h[4:1],4,3,2,1,6,2,7,3,6,2,7,
1,5,3,7,1,6,4,8,1,6,2,7,{8}1,5/2,
2b/6h[1:2],{16}4,3,{8}2,2x,2b,{16}4,3,{8}2,2x,
2b,{16}4,3,{8}2,2x,3b,{16}3,2,1,8,7x,5,
{8}4b,6/3,6/3,6/2,6/1,6/1,6/8,{16}6/8,5,
4,1,4,1,4,1,4,2,5,3,6,4,7,5,{8}8,
2/4,4x/2bx,{16}6,5,6,5,{8}8/1x,8bx/1,{16}2,7,3,6,
{8}4,3bx/5,{16},4/2bx,{8},{4}3/1bx,5h[16:1]/4h[16:1],
{8}8/6,8x/6bx,{16}3,2,4,1,{8}8/3,8x/3bx,{16}7,3,6,4,
{8},5/4bx,{16},5/4bx,{8},6/3bx,{16}3/6,2,1,8,7,6,
5,4,3,2,{24}1x,8,7,6,5,4,3,2,1,8,7,6,{4}5h[16:67],
{1}1bh[16:63],
,,{4},,,{16},,,{32},{64}8x/4x,
7x/3x,
6x/2x,5x/1x,
