&title=インヤンカンケイ
&artist=和田たけあき
&first=0.089
&des=パリラ
&wholebpm=157.000
&des_5=
&lv_5=13+
&inote_5=(157)
{8},,,,,,,,,,,,6,,6,,
{16}3,4,3,4,3,,6,5,,2,4,,3qq8[8:7]/5h[8:1],,,,{8}6,,6,,5-8[8:1],,5,,
{16}2,1,2,1,2,,6,5,,2,4,,3h[8:1]/6h[8:1],,,,{12}4/5,4,4,4-8[8:1]/3,4,4,4b/5,,,
{8}7xb,,16,2,38,7,1h[8:2]/6,7hx[8:2],,2bpp5[16:6],,12,8,7,6,,2x>5[8:1],,2/7h[8:1],,1x>5[8:1],8,7h[8:1]/1,,1-5[8:1],2,1/7-3[8:1],,7-5[8:1]/1-5[8:1],,17,,{16}3,4,3,,
{8}25,3,47,6,3h[8:2]/4,4h[8:2],,2bqq5[16:5],,25,6,7,8,,8xb<5[8:1],,8b/3h[8:1],,7b<4[8:1],1,2h[8:1]/7b,,7,26,
{12}15,1,1,1/6,1,1,1bs5[8:1]/7,,,{8}1b/8b,,3-1[16:2]/6-8[16:2],,
{8}3/6,,7,18,2,3,46,5,6,1-5[8:1]/7,5-3-7[16:3],1,6,,,
{8}6-1-7[16:3],4,6,,2-5-3b[16:3],18,2,,8,7,6/2-4-6[16:3],,6,7,8,1/5x-3-1b[16:3],,5b,,6,5,4/2-7[8:1],,6,,5,1,2h[16:4]/4,,4,,3,,46,5,4/6h[16:4],,3,,
{16}2,1,2,1,2,,7,8,,2,4,3,4,3,5x,,
{8}4x-8[8:1]/6x-8[8:1],,4b/6b,{16}{8},,8,17,2,6,35,2,6,1-3[8:1],7-4[8:1],1,7,,
{8}6-4-7[16:3],4,6,,2-8-3b[16:3],8,2/7,,6,5,4/1-3-5[16:3],,5,6,7,8-6-4b[16:3]/5x,,8b,,1,2,3/7-2[8:1],,3,,4,8,7h[16:4]/5,,4,,2v5[16:2],2,1-6[16:2],1,2-5-3-8[8:4],,
{16}2b,,7-3[8:1],,,,7b,,,,18,,27,,,,56,,,,3,4,3,4,2h[16:10],,{8}6x,,6x,,6bxh[8:2],7,5bh[8:3],8<6[8:1],,8,,
{16}24,,,,6,5,6,5,7h[16:10],,{8}3x,,3x,,3xbh[8:2],4,5bh[8:3],4>2[8:1],,4,,15,,34,2,56,7,24,3,57,6,34,1,56,8,16,2,38,7,
{16}2,4,3,4,3,,,,7,5,6,5,6>3[8:1],,,,62,,,18,,,75,,6v1[8:1]/4v1[8:1],,,,,,,,
{8}2b/8b,{16}3,4,3,,2,,1-5[8:1],,8,,7/1,,,,{8}6-4[16:2],6,8-4-2b[16:4],8,6x-8[8:1],6-2[8:1],,,,
{8}7v4[8:1],1,78,,2v5[8:1],8,12,,
{32}8,,,,17,,,,1xb/7xb,,26,,3xv8[16:2]/5xv8[16:2],,,,{8},3b/5b,,
{8}7bx/1bx,{16}6,5,6,,7,,8-4[8:1],,1,,2/8,,,,{8}3-5[16:2],3,1-5-7b[16:4],1,3x-1[8:1],3-7[8:1],,,,
{8}4,5,6h[8:1],,{16}4,5,3,,,,
{8}2-6[8:1]/8,,2/8-6-4b[16:2],,{16}8/3x,2x,1x,,,,,,
{8}2>4[8:1],,2,1,1<6[8:1],,1,2,2>5[8:1],,2,1,{32}1bx,8x,7x,6x,5x-7-3b[16:4],,,,
{8}2,3-5-1-7[16:10],2h[16:12],,,,,,,
{8}18,1-3[8:1]/8,,1/8-4[8:1],,1-5[8:1]/8-6[8:1],,18,,
{8}7<5[8:1],,7,8,8>3[8:1],,8,7,7<4[8:1],,7,8,{32}8bx,1x,2x,3x,4x-2-5b[16:3],,,,
{8}7,4,8b-6-1[16:3],,8,,6x-3[8:1]*-4[8:1],,6x-8[8:1]*-1[8:1],,6b-2[8:1],,6bw2[8:1],,6b,,48,,
{8}37,{16}5,4,6,,3,4,2,,6,5,7,,3,4,2,5,3v8[8:1],4,2,5,3,,
{8},7,6,54,,
{16}2,4,3,4,3,,{8}7,56,2,34,72,7,71,7,7s3[8:1]/8-4b[8:1],,7b/8b,,,,
{8}6h[8:2]/5,,4,,3,21,38,,7,65,47,,1q5[16:4]/6,,5q1[16:4],,1>5[16:4],,5<1[16:4],,1-3-8-4b[16:5],,4,5,6,,7b<5[8:1]/2b-5[8:1],,,,,,
{8}3h[8:2]/4,,6,5,7h[8:1],,2,2,1,3,5,,4,,3h[8:2]/5,,,,2/6h[8:2],,,,1h[8:2]/7,,,,28,,37,,
{16}4,6,4,6,4,,,,2,8,2,8,2v5[8:1],,,,{8}12,{16},37,,,{8}15,3h[8:4]/7h[8:2],,,,8h[8:3],,2h[8:1],,
{16}1,1,1,1,1,1,1,1,2xh[8:2]/8x,,,,{8}E8,,B6/B5,,B3,,B2/B1,,E7,,E6,B3/B4,B3/B4,,,
{8}7v4[8:1],1,7,,{32}2bx-6b[16:2],3x,4x,,8bx,7x,6x,,2bx,,,,
{8},7,8/2v5b[8:1],,8v3[8:1]/2,,28,,
{8}2b/8b,{16}4,5,3,,2,,1v4[8:1],,8,,7/1,,,,{8}6>4[16:2],6,8-4>2b[16:4],8,6x<8[8:1],6-2[8:1],,,,
{8}7,6,54,,27,3-1[8:1]/6-8[8:1],,3-5[8:1]/6-4[8:1],,3qq5[16:4]/6pp4[16:4],,36,,A5/A4/E5,,
{8}7bx/1bx,{16}5,4,6,,7,,8v5[8:1],,1,,2/8,,,,{8}3b<5[16:2],3,1-5<7b[16:3],1,3x>1[8:1],3-7[16:2],3xb,,,
{8}1>4[8:1],1,8,,8<5[8:1],8,1,,
{16}8,,17,,1xb/7xb,26,3v1[8:1]/5v7[8:1],,,,3bx/5xb,,,,
{8}2xb/6xb,{16}3,5,1,,7,,1v4[8:1],,8,,6/1,,,,{8}6>4[16:2],6,2>4-8b[16:4],2,6x<8[8:1],6-2[8:1],,,,
{8}7,6,5h[8:1],,{16}3,4,2,,,,
{8}7-3[8:1]/1,,7/1-3-5x[16:2],,{16}1b/6xb,7x,8x,,,,,,
{8}3>1[8:1],,3,4,4<7[8:1],,4,3,3>8[8:1],,3,4,{32}4bx,5x,6x,7x,8x<6-2b[16:4],,,,
{8}3,2<8-4<6[16:10],3h[16:12],,,,,,,
{8}12,1<7[8:1]/2,,1/2p6[8:1],,1q5[8:1]/2>4[8:1],,12,,
{8}6<8[8:1],,6,5,5>2[8:1],,5,6,6<1[8:1],,6,5,{32}5bx,4x,3x,2x,1x-3-8b[16:3],,,,
{8}6,1,5b-7-4[16:3],,5,,7x-2[8:1]*-1[8:1],,7x-5b[8:1]*v4b[8:1],,7bxv2[8:1]*-1[8:1],,7bx-5>4b[8:1]*<6-4b[8:1],,7bx-1>2[8:1]*>8-2[8:1],,7bxw3[8:1],,7xb<7b[8:10]*>7[8:10],,,,,,,,,,,,,,
{8}2-5[8:1]/1,,8h[8:1]/2,,1-5[8:1],8,7h[8:1]/1,,
{8}2-4[8:1]/8-4[8:1],1,2-6[8:1]/8,,2/8<4[8:1],,{16}3x/8,2x,1x,,{16}8,7,8,,
{8}16,7,38,2,1h[8:2]/7,7h[8:2],,2bpp5[16:5],,12,8,7,6,,
{8}7-4[8:1],,2h[8:1]/7,,8-4[8:1],1,2h[8:1]/8,,36,27,{12}18,1,1,17,1,1,1v4[8:1]/6-1[8:1],,,1b/6b,
