&title=ドーパミン
&artist=U1 overground
&first=0.956
&des=Kurage
&lv_5=14
&inote_5=(200)
{8}
35,,,35,,,2h[8:8]/6,,,4,,,4,,4,,34,,,45,,,5/6h[8:8],,,4,,,4,,4,,37,,,37,,,4/6h[8:8],,,5,,,5,,5,,57,,,45,,,24,,1h[8:3]/8,,,8w4[16:3],,,,,
{16}26,,,3,4,,35,,2-4[32:3],,,,82,,,,6,,,6,5,,74,,8-4[8:1],,2,,2,,,,
{16}35,,,6,5,,47,,8-5[8:1]*-3[8:1],,,,8,,,,26,,3,4,3h[4:1],,5,,6h[4:1],,4,,4,,,,
{16}73,,,6,5,,64,,7-5[32:3],,,,17,,,,3,,,3,4,,25,,1-5[8:1],,7,,7,,,,
{16}64,,,3,4,,52,,1-4[8:1]*-6[8:1],,,,1,,,,{12}3,4,5,3,4,5,3,4,5,2,6,,
{16}26,,3h[8:1],,5,4,5,4,6,,6h[8:1],,5,7,5,7,4-2[32:3],,8-4[8:1],,,,,,1h[8:1],,5h[8:1],,2,2,4,,3-5[32:3],,7-3[8:1],,,,,,4,,4h[8:1],,6,5,6,5,6-4[32:3],,3,,2-6[8:1],,2,,8-5[8:1]*-3[8:1],,8,,,,,,
2/6h[4:1],,,,4,5,4,5,3,,3h[8:1],,4,2,4,2,5-7[32:3],,1-5[8:1],,,,,,8h[8:1],,4h[8:1],,7,7,5,,6-4[32:3],,2-6[8:1],,,,,,5,,5h[8:1],,3,4,3,4,3-5[32:3],,6,,7-3[8:1],,7,,1h[4:1],,,,5h[16:1],,5h[16:1],,
2h[16:3]/6,,,4,3,,45,,6,5,7,,4,8,4,8,3v8[8:1],,7-4[8:1],,,,,,1h[8:1],,5h[8:1],,2,2,4,,3h[16:3]/5,,,6,4,,53,,26,,2h[8:1],,8h[256:1],7h[256:1],6h[256:1],5h[256:1],3-5[32:3],,6,,7-3[8:1],,8,,1-4[8:1]*-6[8:1],,2h[16:1],,,,,,
7h[16:3]/3,,,5,6,,54,,3,4,2,,5,1,5,1,6v1[8:1],,2-5[8:1],,,,,,8h[8:1],,4h[8:1],,7,7,5,,6h[16:3]/4,,,3,5,,46,,73,,7h[8:1],,1h[256:1],2h[256:1],3h[256:1],4h[256:1],6-4[32:3],,3,,2-6[8:1],,1,,8-5[8:1]*-3[8:1],,7h[16:1],,,,,,
{4}26,6,6,6,{8}6,2h[8:1],{4}6,6,6,
{8}45,4,{16}6,5,6,,{8}3,4,4,4,15,{16}3,4,2,,6,5,7,,3,4,2,,6,5,
{8}
7h[8:2],,5,6,4-6[32:3]/5,3-1[32:3],,,7,8,15,1h[8:1]/5h[8:1],,3,3,4,
2h[8:2],,4,3,5-3[32:3]/4,6-8[32:3],,,2,1,84,8h[8:1]/4h[8:1],,6,6,5,
7h[8:2],,5,6,4-6[32:3]/5,3>8[8:1],,,7,1,26,2h[8:1]/6h[8:1],,4,35,26,
2h[8:2],,4,3,5-3[32:3]/4,6<1[8:1],,,,,,,,,,,
{8}
15,2h[8:1],{16}4-8[32:5],3-1[32:3],4,3,{8},,7-5[32:3],3v1[8:1],
4>6[32:9],,,,5h[4:1],,{12}6,5,6,
3,5,4,5,5,5,4,5,5,5,5,5,
{8}5qq5[32:10],,6h[16:1],6h[16:1],7V58[4:1],,4h[8:1],,
2,3h[8:1],{16}1-5[32:5],4-2[32:3],1,4,,,,,7v4[8:1],7,3v8[8:1],,
{8},,{16}5-1[8:1],5,1V35[32:7]*V75[32:7],,{8},,,,
6,{16}6,5,{8}7,7,8/4h[8:2],8,1-5[8:1],1,
4pp4[32:10],,3h[16:1],3h[16:1],2w6[8:1],,,,84,7h[8:1],
{16}5-1[32:5],6-8[32:3],5,6,{8},,2-4[32:3],6v8[8:1],
5<3[32:9],,,,4h[4:1],,{12}3,4,3,
6,4,5,3,4,4,5,4,4,3,4,4,
{8}4pp4[32:10],,3h[16:1],3h[16:1],2V41[4:1],,5h[8:1],,
6,6,5h[8:1]/7,7,4h[8:1]/8,8,3h[8:1]/1-4[8:1]*-6[8:1],1,
,,{16}3-7[8:1],3,7V13[32:7]*V53[32:7],,{8},,,,
4pp5[4:1],,3h[8:1],,{12}2,2,4,3,3,5,
{8}4>6[32:9],6,8,,5-8[8:1],8,1-4[8:1],4,
3h[4:1],,5,46,3,7,7h[8:1]/3h[8:1],,4h[8:1]/5h[8:1],,26,3,4h[8:1]/5h[8:1],,3/7-3[8:1],,
{16}1h[4:1],,,,4,2,4,2,5pp6[4:1],3,5,3,,,,,
4h[8:1],,5,4,,6h[16:1]/3h[16:1],,,{8}5pp4[32:11]/4h[8:2],,,,
3>8[16:3],,{12}5,5,5,5<8[16:3],,,{8}3,3,{16}
3h[8:1],,1-5[8:1],2,1,,8,,7h[8:1],,6-3[8:1],7-2[8:1],6,,,,
{8},,5h[8:1]/4,4,3h[8:1]/5h[8:1],,5h[8:1]/2,2,1/5h[8:1],1,8/5h[8:1],8,7/5h[8:1],7,6/5h[8:1],,
15,2h[8:1],{16}4-8[32:5],3-1[32:3],4,3,{8},,7-5[32:3],3v1[8:1],
4>6[32:9],,,,5h[4:1],,{16}6,5,6,5,
{12}6<1[15:3],,,{16}4h[16:1],,4h[16:1],,{12}4>1[16:3],,,{8}6,6,5<3[32:10],,,,4w8[8:1],,,,
{16}2h[8:4]/6,,,6,,,4,,4-6[32:3],,,,3qq4[32:15],,,,7h[4:1],,,,,,,,5h[4:1],,,,4,,,,7h[8:4]/3,,,3,,,5,,5,,5-3[32:3],,,,6,,7-4[8:1],,,,4,,3-8[8:1],,,,5,,5,,,,2h[16:3]/6,,,4h[16:3],,,3,,5/3-5[32:3],,,,7-3[8:1],,,,4>6[16:5],,,,,,5,,5-8[8:1]*-2[8:1],,,,,,,,7h[16:3]/3,,,3h[16:3],,,5,,6<1[8:1]/4>1[8:1],,,,,,,,2h[8:1]/8h[4:1],,,,,,7h[4:1]/3h[8:1],,,,,,6h[8:1]/4h[8:1],,,,
{8}37,4,37,6h[8:1],5-3[8:1],5,7,6V48[4:1],,1,1-3[32:3],,1-5[8:1]/7,,15,,
46,7,46,3h[8:1],4-6[8:1],4,2,3V51[4:1],,8,8<5[8:1]*>3[8:1],,8,,62,,
{16}53,,2h[8:1],,4,3,5,3,6,,6,5,,5,7,,48,,7h[8:1],,5,6,4,6,3,,3,4,,4,2,,35,,6,5,7,,4,5,3,,24,,6,,57,,3,4,3,4,2,5,2,5,1,6,1,6,8,7,8,7,
1V36[4:1],,2,,6V48[4:1],,7h[8:2],,,,,,6,,1/5h[8:1],,3-7[8:1],4,2,,1-4[8:1],,,,1/5-1[8:1],,,,75,,7,,8V63[4:1]/2,,7,,3V51[4:1],,2h[8:2],,,,,,3,,8/4h[8:1],,6-2[8:1],5,7,,8-5[8:1],,,,8/4-8[8:1],,3,,24,,2,,17,,6,5,6,,34,,21,,6,5,7,,46,,82,,3,4,3,,65,,78,,2,1,3,,27,,45,,6,5,7,,34,,12,,6,5,7,,46,,{32}1h[8:1]/2,3,4,5,,,,,8h[8:1]/7,6,5,4,,,,,1w5[8:1]/7,2,3,4,5,6,7,8,1,,,,,,,,{4}3bpp8[4:11]/7bpp4[4:11],,,,,
