&title=B.A.A.B
&artist=KARAKURI
&first=0.1
&des=东京七姐妹
&lv_5=13
&inote_5=(126)
{1},
{16}24,,,4,3,,5,,6-4[12:1],,,,46,,3,,6,,,5,6,,4-2[12:1],,6-4[12:1],,,,,,,,
24,,,4,3,,5,,6-8[12:1],,6,5,,,3,,7,,,5,6,,4-2[12:1],,5pp4[4:1],,,,,,,,
2,,,4,2,,5,,2-6[8:1],,4,,,,,,7,,,5,7,,4,,7-3[8:1]/5-1[8:1],,,,,,,,
2,,,2,6,,4,,7h[4:1],,,,5,6,4,5,2,,,4,3,,34,,2>5[8:1]/5<8[8:1],,,,,,,,
7,,,5,7,,4,,7-3[8:1],,5,,,,,,2,,,4,2,,5,,3-8[8:1]/4-8[8:1],,,,,,,,
7,,,7,3,,5,,2h[4:1],,,,4,3,5,5,2-5[12:1],,,5-3[12:1],,,7-1[12:1],,,1-6[12:1],,,
2h[16:1],,3h[16:1],,
4-7[12:1]/8-5[12:1],,,,4-1[12:1],,,,8>3[8:1]/4<7[8:1],,6,,48,,,,
5-2[12:1]/1-4[12:1],,,,5-8[12:1],,,,5>2[8:1],,1<6[8:1],,5,,1,,
4-7[12:1],,,,4-1[12:1],,,,8>3[8:1]/4<7[8:1],,6,,48,,,,
1>4[8:1]/5<8[8:1],,7,,51,,,,2>5[8:1]/6<1[8:1],,8,,62,,,,
4-1[8:1],,1V38[4:1],,7-4[8:1],,,,7>2[8:1],,,,7b,,,,
5-8[8:1],,8V61[4:1],,2-5[8:1],,,,2<7[8:1],,,,2b,,
3,4,5-8[8:1],,8V61[4:1],,5,,1-4[8:1],,4V25[4:1],,,,6h[8:1],,,,
{1}7bw3[4:1],
{16}4-7[12:1],,,,4-2[12:1]/1-3[12:1],,1,,4>6[4:1],,,,,,,,
5-2[12:1],,8-5[12:1],,5V74[4:1],,,,1-3[8:1],,3-8[8:1],,1,,5,,4,,25,,6,5,7,,
8-4[8:1]/3-8[8:1],,,,3b/8b,,,,4,4,3,3,6,6,5,,6<1[8:1]/2>5[8:1],,1,,26,,,,
5-2[12:1],,,,5-7[12:1]/8-6[12:1],,8,,5<3[4:1],,,,,,,,
4-7[12:1],,1-4[12:1],,4V25[4:1],,,,8-6[8:1],,6-1[8:1],,8,,4,,5,,74,,3,4,2,,
1-6[8:1],,5-8[8:1],,1b>4[8:1],,5,,1<6[8:1],,8,,1,,2,,2-5[8:1]/5-1[8:1],,,,2b/5b,,,,
3/7,,,,7,,,,17,,,,7,,,,6/2,,,,2,,,,82,,,,2,,,,
3/4>5[1:1],,,,6,,,,8,,,,2,,,,
4,,,,3,,,,5,,6,,6,,1,,2-5[12:1],,,,2,,6<1[8:1],,,,1>7[2:1],,,,4,,,,,,1,,2,,,,
24,,35,,46,,7-4[8:1],,,,7,,3h[4:1],,,,5h[4:1],,,,4,4,6,,5,6,4,5,4b>1[4:1],,,,,,,,,,5-2[12:1]/1-4[12:1],,,,5-8[12:1],,,,1<6[8:1]/5>2[8:1],,3,,51,,,,
4-7[12:1]/8-5[12:1],,,,4-1[12:1],,,,4<7[8:1],,8>3[8:1],,4,,8,,
5-2[12:1],,,,5-8[12:1],,,,1<6[8:1]/5>2[8:1],,3,,51,,,,
8<5[8:1]/4>1[8:1],,2,,48,,,,7<4[8:1]/3>8[8:1],,1,,37,,,,
5-8[8:1],,8V61[4:1],,2-5[8:1],,,,2<7[8:1],,,,2b,,,,
4-1[8:1],,1V38[4:1],,7-4[8:1],,,,7>2[8:1],,,,7b,,
6,5,4-1[8:1],,1V38[4:1],,4,,8-5[8:1],,5V74[4:1],,,,3h[8:1],,,,
{1}2bw6[4:1],{16}5-2[12:1],,,,1-6[12:1]/5-8[12:1],,8,,5<3[4:1],,,,,,,,
4-7[12:1],,1-4[12:1],,4V25[4:1],,,,8-6[8:1],,6-1[8:1],,8,,4,,5,,74,,3,4,2,,
1-5[8:1]/6-1[8:1],,,,6b/1b,,,,5,5,6,6,3,3,4,,4>1[8:1]/8<5[8:1],,2,,84,,,,
4-7[12:1],,,,8-3[12:1]/4-1[12:1],,1,,4>6[4:1],,,,,,,,
5-2[12:1],,8-5[12:1],,5V74[4:1],,,,1-3[8:1],,3-8[8:1],,1,,5,,4,,25,,6,5,7,,
8-3[8:1],,4-1[8:1],,8b<5[8:1],,4,,8,,2,,1,1,4,4,
{32}2-6[8:1],3,4,5,6,7,8,1,2b,,,,
{16},,
8-4[8:1],,,,2-6[8:1]/8>3[8:1],,1,,2/8<5[8:1],,,,8-3[8:1],,3V14[4:1],,
7-4[8:1],,,,,,,,5>2[8:1],,8<5[8:1],,,,,,
1-5[8:1],,,,7-3[8:1]/1<6[8:1],,8,,7/1>4[8:1],,,,1-6[8:1],,6V85[4:1],,
2-5[8:1],,,,,,,,4v7[8:1],,1v4[8:1],,,,,,
8-4[8:1],,,,2-6[8:1]/8>3[8:1],,1,,2/8<5[8:1],,,,8-3[8:1],,3V14[4:1],,
6-1[8:1],,,,,,,,5-2[8:1],,8-5[8:1],,5,,8,,
1-5[8:1],,,,7-3[8:1]/1<6[8:1],,8,,7/1>4[8:1],,,,1-6[8:1],,5-8[8:1],,
1,,5,,2,,2,4,3b-6[8:1],5,4,6,
