&title=徒花ネクロマンシー
&artist=フランシュシュ
&first=1.41
&des=Ragna
&wholebpm=172
&demo_seek=49.4
&demo_len=24.8
&des_6=Ragna/TVアニメ「ゾンビランドサガ」OPテーマ
&lv_6=13+
&inote_6=(172){16}
3,3,4-2-6-8[8:3],,,,5h[8:3]/4b,,,,,,,,,,
6,6,5-7-3-1[8:3],,,,4h[8:3]/5b,,,,,,,,,,
3b-8[8:1]/7-4[8:1],,,,3/7b,,,,1b/5,,,2/7b,,,
3h[8:3]/4b,,,,,,6,5,,3,4,,7,,1pp4[8:3]/8qq5[8:3],,2,,
1x/8x,,,,,,,,,,45,,36,,27,,
8/1-5[8:1],,,,6,,6h[4:1],,,,5^2[8:1],,,,7,,
8-4[8:1],,1-5-2[4:1],,8,,1,,,,8,,8,,18,27,
6V48[4:1]/3,,,,2,,2-4[8:1]*-6[8:1],,,,2,,,,7,,
37,26,5/1-5[8:1],,,,7-3[8:1],,,,1,,1^4[8:1],,,,
6,7,8-5[8:1],,5,,8,,,,1,,14,25,36,47,
5/8-4[8:1],,,,3,,3h[4:1],,,,4^7[8:1],,,,2,,
1-5[8:1],,8-4-7[4:1],,1,,8,,,,1,,1,,18,27,
3V51[4:1]/6,,,,8,,8v3[8:1]*v5[8:1],,,,8,,,,2,,
26,37,4qq1[16:7]/8qq5[16:7],,,,,,,,,,,,,,{6}
,2b/4,7b/5,1b/8,3/4b,6/5b,{16}
1b/8b,,2,,3,,7,,6h[16:3],,,5h[16:3],,,8,,
8z4[4:1],,,,3,,3-8[8:1],,,,5h[4:1],,,,1,,
6,5,7,,3,4,2,,6,5,8,,3,4,1,,
78,61,52,,,,12,83,74,,,,18,27,36,,
,,6,,5,,4,,3h[16:3],,,7h[16:3],,,2,,
2z6[4:1],,,,5,,5-8[8:1],,,,4h[4:1],,,,7,,
2,4,3,,7,5,6,,1,4,3,,8,5,6,,
34,,,28,,,6h[4:1]/4h[4:1],,,,,,,,7-4[8:1]/3-8[8:1],,
82,,73,,,,{32}1b/5b,26,37,48,{16},,3,7,2,6,1,,
3x,4x,,6x,5x,,1x/7xh[4:1],,,,4x,,5x,,2-5[8:1]/6-1[8:1],,
17,,26,,,,{32}8b/4b,73,62,51,{16},,6,2,7,3,8,,
6x,5x,,3x,4x,,8x/2xpp5[8:3],,,,5,,6,,7,,
8h[2:1],,,,4,,,,2h[2:1],,4,,5,,6,,
7h[2:1],,,,5,,,,1h[16:3],,,5h[16:3],,,4,,
36,,2v4[8:1]/7v5[8:1],,18,,2v1[8:1]/7v8[8:1],,,,27,,,,27,36,
4^1[8:1]/5^8[8:1],,,,4b/5b,,,,,,,,4,5,4,5,
3-8[8:1],,,,7,,7h[4:1],,,,8^3[8:1],,,,6,,
5-7-4-8[8:3],,4,,5,,1h[4:1],,,,,,,,27,36,{8}
4h[4:1]/5h[4:1],,,3h[4:1]/8h[4:1],,,7h[4:1]/1,,
5b<4[8:3],,,,5x<4[8:3],,,,
5x<4[8:3],,,,5xw1[8:1],,,,
73,4,8h[8:1],{24}6b,5,4,3,2,1,8-4[8:1],7,6,5,4,3,{8}28,
,1-5[8:1],5,1,6-1[8:1],4,6,2h[4:1],
,8h[8:1],{24}3b,4,5,6,7,8,1,2,3,4-8[8:1],5,6,7,8,1,{8}24,
,3-5[8:1],6,3,7-3[8:1],3,7,1-5[8:1],
,8-4[8:1]/1,,3-8[8:1]/8,,5^8[8:1]/3,,1-5[8:1]*-3[8:1]/5,
,1,,4^1[8:1]/6,,4/7h[4:1],,8,
1x/5xh[4:1],,4,2xh[4:1]/6x,,1,8x/4x,,
6h[8:1]/5b,{16},2h[8:1]/4b,{8},1b-5-3[4:1]/8b,,15,6,7,
28,1,7h[8:1],{24}5b,4,3,2,1,8,7-3[8:1],6,5,4,3,2,{8}17,
,2-6[8:1],4,2,7-1[8:1],5,7,4h[4:1],,
8h[8:1],{24}5b,6,7,8,1,2,3,4,5,6-2[8:1],7,8,1,2,3,{8}64,
,3-8[8:1],8,3,7-4[8:1],4,7,1^4[8:1],
,8^5[8:1]/1,,8/2-8[8:1],,2/4-8[8:1],,4/1v4[8:1]*v6[8:1],
,1,,3/7^4[8:1],,7/2h[4:1],,1,
4xh[4:1]/8x,,5,7x-4[8:1]/3x-8[8:1],,7x/3x,,1b-3[8:1]/5-7[8:1],
,1b-5[8:1]/5,,1b-3[8:1]*-7[8:1]/5,,1b-5-7-1-3[8:3],,1b/5,
,,6xh[4:1],,5xh[4:1],,8xh[4:1],,
1-5[8:1],,6,6V83[4:1],,3-8-4-7[16:7],,4xh[8:3],
,,,,18,1p5[8:1]/8,,1^3[8:1]/8q4[8:1],
,18,,2b/5b,1b/6b,7bV51[4:1]/8b-4-2[4:1],,8b/7b,
,,,38,74,5-1[8:1]/6,4,3h[4:1]/5b,
,8,27,1-5[8:1]/6v8[8:1],,16,,7h[4:1]/4b,
,1-3[8:1],8-6[8:1],1-5[8:1],8-4[8:1],1,8,1,{16}
2b-6[8:1],6b,4b,8b,{8}2b,,7b/3b,5b/1b,,,
6b^3-7^2[4:3],,,,,,,,
4bV26[4:7]*<1[4:7],,
{1},,E
