&title=Answer to Extreme
&artist=Togenashi Togeari
&first=0.679
&des=Greentea_3064
&lv_5=14
&inote_5=(150)
{16}4,,5,,4,,5,,4,,6,6,4,,6,,4,,7,,4,,7,,4,,8,8,4,,8,,
{16}3,,8,,3,,8,,2,,8,8,2,,8,,1,,8,,1,,8,,
{4}1bw5[8:1],1b,
{16}4,6,4,6,4,6,4,6,3,5,3,5,3,5,3,5,
{16}2,4,1,4,8,4,7,4,6,4,5,4,3,4,2,4,
{16}2,5,2,6,2,7,2,8,2,1,2,3,2,4,2,5,
{16}2,6,2,7,2-6[8:1],8,2,1p5[8:1],2,,,1,
(600)
{1},
{4}1-5[150#12:1]b,5,3,7,
(150)
{8}1b>3[8:1],6,7/1,8,4-1[8:1],1-3[8:1],8/4,7,
{16}6-2[8:1],,2,2,6,,3,,
{8}3-8[8:1],8-2[8:1],7/3,6,
{16}6-3[8:1],,3,3,6,,2,,
{8}1-4[8:1],4-2[8:1],5/1,6,
{16}7-4[8:1],,4,4,7-5[8:1]b,,3-1[8:1]b,,
{8}7,3,
{16}4,8,4,8,
{16}5-1[8:1],,1,1,5,,2,,
{8}3-6[8:1],6-4[8:1],7/3,8,
{16}1-5[8:1],,5,5,1,,4,,
{8}3-8[8:1],8-2[8:1],7/3,6,
{16}5-1[8:1],,1,1,5,,2,,
{8}3-6[8:1],6-4[8:1],7/3,8,
{16}7-3[8:1],,3,3,7-2[8:1],,2<5[4:1],,
{8}2,3,4,,
{8}3h[8:3],5,6,5,6h[8:3],3,4,3,
{8}2-4[8:1],1,8-6[8:1]/2,1,2-4[8:1]/8,1,2/8,7,
{8}6-8[8:1],5,4,5,6-8[8:1],4,3,4,
{8}2-5[8:1],5>8[4:1],2,8pp4[16:5],7<4[16:3]b,,7,,
{8}6h[8:3],4,3,4,3h[8:3],6,5,6,
{8}7-5[8:1],8,1-3[8:1]/7,8,7-5[8:1]/1,8,7/1,2,
{8}3-1[8:1],4,5,4,3-1[8:1],5,6,5,
{8}7-4[8:1],4<1[4:1],7,1qq5[16:5],2>5[16:3]b,,2,,
{16}2xh[8:1]/4xh[8:1],,,3xh[8:1]/5xh[8:1],,,4x/6x,,
{4}7v2[8:1]/5-2[8:1],7/5,
{16}3xh[8:1]/1xh[8:1],,,2xh[8:1]/8xh[8:1],,,1x/7x,,
{4}6v3[8:1]/8-3[8:1],6/8,
{16}1xh[8:1]/5xh[8:1],,,2xh[8:1]/6xh[8:1],,,3x/7x,,
{4}4qq2[8:1]/8qq6[8:1],4/8,
{8}1-5[8:1],7-3[8:1],1,7,
{4}8w4[8:1]b,8,
{16}8xh[8:1]/4xh[8:1],,,7xh[8:1]/3xh[8:1],,,6x/2x,,
{4}5-2[8:1]/1-6[8:1],5/1,
{16}7xh[8:1]/3xh[8:1],,,8xh[8:1]/4xh[8:1],,,1x/5x,,
{4}2-7[8:1]/6-3[8:1],2/6,
{16}8xh[8:1]/4xh[8:1],,,1xh[8:1]/5xh[8:1],,,2x/6x,,
{4}3-8[8:1]/7-4[8:1],3/7,
{8}2/Cf,2,6/Cf,6,
{32}2,3,4,5,6,7,8,1,
{4}2b-6[6:1]/8b<6[6:1],
{4}2b>4[6:1]/8b-4[6:1]/Cf,2b/8b/Cf,
{8}2-5[8:1],5-2[8:1],2-8[8:1],8>3-5[4:1],
{8}7<6-4[8:1]b,,7v2[8:1],,7p3[8:1],3,7,4,
{8}7-3[8:1],,7-1[8:1],5,7-5-1[6:1],4v2[8:1],3,4,
{8}7-5-3[4:1],,3<1[4:1],2,1-5[6:1],,Cf/2xb>5[8:1],,
{4}2<7[8:1]/6,2>5[8:1]/6,
{8}2<7[8:1]/5,6,2/7,6,
{8}5v8[8:1],,5v2[8:1]/3,4,5-1[8:1]/7,6,5qq1[2:1]/3,4,
{8}5,,1-3-5[8:3],8,7q3[8:1],,7,,
{8}7-5[8:1],5-1[8:1],7,,
{32}2,3,4,5,6,7,8,1,
{4}2p6[8:1]/8<6[8:1],
{4}2b>4[8:1]/8bq4[8:1],2b/8b,
{8}7-4[8:1],4-7[8:1],7-1[8:1],1<6-4[4:1],
{8}2>3-5[8:1]b,,2v7[8:1],,2q6[8:1],6,2,5,
{8}2-6[8:1],,2-8[8:1],4,2-4-8[6:1],5v7[8:1],6,5,
{8}2-4-6[4:1],,6>8[4:1],7,8-4[6:1],,Cf/7xb<4[8:1],,
{4}7>2[8:1]/3,7<4[8:1]/3,
{8}7>2[8:1]/4,3,7/2,3,
{8}4v1[8:1],,4v7[8:1]/6,5,4-8[8:1]/2,3,4pp8[2:1]/6,5,
{8}4,,8-6-4[8:3],1,2p6[8:1],,2,,
{8}2-6[8:1],6,2-4[8:1],4-8[8:1],2,,
{32}6,5,4,3,2,1,8,7,
{16}6h[8:1]/3,,3,3,6h[8:1],,2,,
{8}6h[8:1],1,6h[8:1],1,
{16}3h[8:1]/6,,6,6,3h[8:1],,7,,
{8}3h[8:1],8,3h[8:1],8,
{8}2h[8:3],7,6h[8:1],,
{16}2,6,3,7,4,8,5-2[16:3],1-6[8:1],
{16}5,1,5,1,
{4}B7/C/B3,
{8}1bh/6h,4h/5bh,3h/8bh,4bh/5h,
{16}4-1[8:1],,7,7,4,,6,,
{8}1>4[6:1]/5,6,7,8,
{16}8-5[8:1],,3,3,8,,2,,
{8}5<8[6:1]/1,2,3,4,
{16}4qq1[8:5],,8,8,7,,6,,
{8}5<8[6:1],4,5,,
{16}8v7<6v5[4:2],,4,4,3,,2,,
{4}Chf[4:1]/B2/B3/E3,,
{16}2hb[8:1]/Ch[8:1],,,6h[8:1]/Ch[8:1],,,2h[16:1]/Ch[16:1],,
{4}8-3[8:1]*-5[8:1],8,
{16}7h[8:1]/Ch[8:1],,,3h[8:1]/Ch[8:1],,,7h[16:1]/Ch[16:1],,
{4}5-2[8:1]*-8[8:1],5,
{16}1h[8:1]/Ch[8:1],,,5h[8:1]/Ch[8:1],,,1h[16:1]/Ch[16:1],,
{4}7-4[8:1]*-2[8:1],7,
{8}2-4[8:1],6-8[8:1],2-7[8:1],6-3[8:1],2w6[6:1],6,2,,
{16}3h[8:1],,E6/B5,2h[8:1],,E7/B7/B6,1,,
{4}1-4[8:1]*-6[8:1],1b,
{16}6h[8:1],,E4/B4,7h[8:1],,E3/B2/B3,8,,
{4}8-5[8:1]*-3[8:1],8b,
{16}3h[8:1],,E6/B5,2h[8:1],,E7/B7/B6,1,,
{4}1-4[8:1]*-6[8:1],1b,
{8}2-6[8:1],2,2/7,7,
{32}7/2,1,8,7,6,5,4,3,
{4}2b/Cf,
{16}3,4,3,4,5,6,5,6,1,8,3,4,1,8,5,6,
{16}2,7,4,5,1,8,3,6,
{32}2,3,4,5,6,7,8,1,
{4}2b-6[8:1]/8b<6[8:1],
{4}2b>4[8:1]/8b-4[8:1],2/8b,
{8}2v5[8:1],5-3-1[8:1],2/7,8,
{8}7-1[8:1],,7-5[8:1],B4,7-3[8:1],B2,7,B8,
{8}7>3[4:1],,3qq4[3:1],4,5<8[8:1],,5,,
{8}1qq5[2:1],,2-4[8:1]/1,2,2-8[8:1],,2>5[6:1]*-5[6:1],,
{4}2b-7[6:1]*<7[6:1],2b,
{8}2-4[8:1],4v5[8:1],5-7[8:1],,
{8}8-2[8:1],,8-6[8:1],B5,8-4[8:1],B3,8,B1,
{8}8>3pp8[8:5],,7-4[8:1],6,7>2[8:1],,7,,
{8}5-3>2[8:1],6,5-7>8[12:1],,
{32}5/1,2,3,4,5,6,7,8,
{4}1-5[8:1]/7-5[8:1],
{4}7b-3[8:1]/1b-3[8:1],
{4}7b/1b,
{8}7v4[8:1],4-6-8[8:1],7/2,1,
{8}2-8[8:1],,2-4[8:1],B5,2-6[8:1],B7,2,B1,
{8}2<6[4:1],,6pp5[3:1],5,4>1[8:1],,4,,
{8}8pp4[2:1],,7-5[8:1]/8,7,7-1[8:1],,7<4[6:1]*-4[6:1],,
{4}7b-2[6:1]*>2[6:1],7b,
{8}7-5[8:1],5v4[8:1],4-2[8:1],,
{8}1-7[8:1],,1-3[8:1],B4,1-5[8:1],B6,1,B8,
{8}1<6qq1[8:5],,2-5[8:1],3,2<7[8:1],,2,,
{8}5-3>2[8:1],6,5-7>8[12:1],,
{32}5/1,2,3,4,5,6,7,8,
{4}1b,
{16}3x,5,4,6x,4,5,3x,5,4-1[8:1],6x,4-7[8:1],5,
{8}4x,4x,
{16}2x,8,1,7x,1,8,2x,8,1-4[8:1],7x,1-6[8:1],8,
{8}1x,1x,
{16}2h[16:1],5,5,2h[16:1],6,6,2h[16:1],7,7,2h[16:1],8,8,1,8,1,8,
{16}1h[16:1],7,7,1h[16:1],6,6,1h[16:1],5,5,1h[16:1],4,4,
{16}1x/5x,2x/6x,7x/3x,4x/8x,
{16}5,4,3,1,8,7,4,3,2,8,7,6,
{32}3,2,1,8,7,6,5,4,
{16}3b/7,6,5,3,2,1,6,5,4,2,1,8,
{32}4p2[8:3],5,6,7,8,1,2,3,
{16}4b/8,,,2>7[32:15],,,1q5[4:1],,
{2},
{16}3/4,,,6/5,,,2/4,,7b/5b,,,1b/3b,,,8b/6b,,
{8}2b/7b,7,2h[8:1],7,
{16}2h[8:1],,6,6,2h[8:1],5,5h[16:1],,
{8}2h[8:1],4,2h[8:1],4,2h[8:1],3,2h[8:1],3,
{8}2h[8:1],4,2h[8:1],4,
{16}2h[8:1],,5,5,2h[8:1],6,6h[16:1],,
{8}2h[8:1],7h[8:1],2h[8:1],7,
{4}Ch[8:1],
