&title=Crystalia
&artist=DJ TOTTO
&first=0.268
&des=Quartz
&clock_count=3
&lv_5=13+
&inote_5=(270)
{1},,,,
{4}B5/B4,,,,,,,,
(135)
{4},,B2/B3,,
{4},,,,
{4}B8/B1,,,,
{4},,B6/B7,,
{4},,,,
{4}5xh[4:3]/4x,,,3h[8:3],
{8},8h[8:3],,,2h[8:3],,,7h[8:3],
{8},,,,,3,4,5,
{8}6h[8:6],,,,,,2h[8:3],,
{8},8h[8:3],,,1h[8:6],,,,
{8},,7h[8:6],,,,,,
{8}1x,,,C,,,A5,,
{8},A7,,,A1,,,A3,
{8},,C,,,5h[8:3],,,
(270)
{4}1x^4[4:1],4-8[4:1],,7x^4[4:1],
{4}4-8[4:1],,1x-5[4:1],5^2[4:1],
{4},7x^2[4:1],2^5[4:1],5,
{4}1x^6[4:1],6-2[4:1],,8x^3[4:1],
{4}3-7[4:1],,2x^5[4:1],5-1[4:1],
{4},7x^4[4:1],4^1[4:1],1x,
{4}4x-8[4:1],6/4,,7x-3[4:1],
{4}7/1,,1x-5[4:1],1/6,
{4},7x-3[4:1],3-7[4:1],,
{4}1x-5[4:1],7/1,,6x^3[4:1],
{4}3^8[4:1],8x^5[4:1],5x-1[4:1],3,
{4}3,{8}2x/8x,7,1,8,2,,
{8}7x/4x,,3,5,4,,8/3,,
{8}2,8,1,,5/8,,6,4,
{8}5,,7x/3x,,5x/1x,,6x/4x,,
{8}5/2,,3,6,4,,8/5,,
{8}7,4,6,,5/3,,2,5,3,,
{8}6x/4x,,8x/2x,,7x/3x,,
{8}2/5,,6,4,5,,1/6,,
{8}7,1,8,,4/1,,3,5,
{8}4,,2x/6x,,4x/8x,,3x/5x,,
{8}4/7,,6,3,5,,1/4,,
{8}2,5,3,,7x^2[4:1],,2-6[4:1],,
{8}6^3[4:1],,3^8[4:1],,8^5[4:1],,4x,,
{8}2x,2x,,8,8,,1-3[8:1],1,
{8}7-5[8:1],,,,4xh,4,,6,
{8}6,,2,8,3,7,4,6,
{8}2xh,2,,1,1,,8x-6[8:1],8,
{8}2-4[8:1],,,,5xh,5,,3,
{8}3,,6xh,6,,4,4-8[8:1],,
{8}7xh,7,,6,6,,3x-1[8:1],3,
{8}5-7[8:1],,,,1xh,1,,7,
{8}7,,2,1,3,8,4,7,
{8}3xh,3,,5,5,,1x-3[8:1],1,
{8}7-5[8:1],,,,3xh,3,,6x,
{8}6,,1,8,2,7,3,6,
{8}5xh/4xh,5x/4x,,1/2,1/2,,6xh,1,
{8}7,,8/2,,3xh/4xh,3x/4x,,6/5,
{8}6/5,,2,4,1,5,8,6,
{8}7xh/1xh,7x/1x,,5/3,5/3,,7xh,4,
{8}6,,5/3,,1xh/2xh,1x/2x,,7,
{8}7,,5xh/4xh,5x/4x,,2,2,,
{8}8xh/1xh,8x/1x,,4/3,4/3,,7xh,4,
{8}6,,5/3,,2xh/1xh,2x/1x,,7/8,
{8}7/8,,6,4,7,3,8,2,
{8}7xh/1xh,7x/1x,,3,3,,8xh,2,
{8}7,,6/1,,4xh/3xh,4x/3x,,6/8,
{8}6/8,,7xh,7,8,8,1,1,
{8}2xpp5[4:5],,,,,,,,
{4},,7qq4[4:5],,
{4},,,,
{8}1-5[2:1],,,B1,,,A5,,
{8},,,,8-4[2:1],,,B8,
{8},,A4,,,,,,
{4}1>6[4:5],,,C,
{4},,8<3[4:5],,
{4},C,,,
{4}1-5[2:1],,,,
{16},,E7,,,E5,,,E3,,,,,,,,
{8},,C,,,,,,
{4}7h[4:6]/1h[4:3],,,,
{4},,3h[4:3],,
{4},5h[4:3],,,
{4}1h[4:3],{8},E8,E7,E6,E5,E4,
{8}E3,E2,E1,E8,3h[2:1],,,,
{8}6h[2:1],,,,2h[2:1],,,,
{4}8-6-4-2[4:3],,,,
{4}8,1,2-4-6-8[4:3],,
{4},,2,1,
{4}8<2[4:3],,,,
{4},,1>5[2:1],,
{4},8b,,{8}2,8,
{8}1,5,2-6[8:1],4,2x,,8,4,
{8}5-1[8:1],2,5x,,3,8,2-5[8:1],6,
{8}2x,,8-4[8:1],8,4x,,1,5,
{8}3,6,2x,4,1-5[8:1],,1x,,
{8}6,6,3,5,3p7[4:1],,7^4[4:1],,
{8}4^1[4:1],,1x-5[4:1],,7x,,8x,,
{8}3,8,4-8[8:1],6,4x,,7,1,
{8}5-1[8:1],3,5x,,2,7,4-1[8:1],8,
{8}4x,,6,6,1x,4,2,5,
{8}3-8[8:1],,7-4[8:1],,,,2-5[8:1],,
{8}6-1[8:1],,,,4^1[4:1],,1p5[4:1],,
{8}5p1[4:1],,1^6[4:1],,6^3[4:1],,1x-5b[8:1],,
{8},,2x,6,3,,8,3,
{8}5-8[8:1],2,5x,,3,7,1-5[8:1],6,
{8}1x,,7-3[8:1],7,3x,,2,5,
{8}4,7,2x,1,4,6,2x,,
{8}7,8,5,1,6x-2[4:1],,2^4[16:3],,
{8}4-8[4:1],,8x^5[4:1],,1,,2,,
{8}4x,1,2,5,1,7,3,8,
{8}1,5,4,7,2x,1,4,6,
{8}1,8,2,5,4,7,2,1,
{8}8x-5[8:1]/3x,,4x-1[8:1],,,,6x-3[8:1],,
{8}2x-7[8:1],,,,5,5,6x/4x,6x/4x,
{8}7x/3x,,1,1,1xz5s1[45#12:8]*s5z1[45#12:8],8x/2x,7xh[4:4]/3xh[4:4],,
