&title=Plazma
&artist=米津玄师
&first=-0.18
&des=等离子
&des_5=
&lv_5=13
&inote_5=(173){4},,,,,,,,,6/5,
{8}5x/7xh[8:7],,,4,
4,,,5-3[8:1],,7-5[8:1],,4,
{4}4,3/4,{2}2/4pp5[8:3],
{8}3h[4:1],,,5/4>6[0.3468##0.6936],{16},,,,,,,,,,,,{4}4x/5x,
{8}4x/2xh[2:1],,,8,
8h[8:3],,,5-2[8:1],,1-6[8:1],,3,
{4}3,7-3[8:1],{2}3-7[8:1],
{8}5/1,2/6,{4}3/7<8[24:11],{2}Ch[4:1],
{24}A7,A6,A5,A4,A3,A2,A1/E2/E1,B1,C,B5,,,{4}8bx>3[8:1],7x/8x,
{8}5,5,3,4/2,{16}6,5,6,5,{4}7h[4:1],
{8}5-8b[8:1],4,{4}4,1x<6[8:1],2x/1x,
{8}4,3,6,7/5,{16}3,4,3,4,{4}2V41[4:1],
{2}1-5b[8:1],{4}7bx-3[8:1],7x/8x,
{16}3x,4,{8}2,5x/6x,5x/7x,{16}2x,1,3x,1x,{4}2xh[4:1],
{8}8<5b[8:1],1,{4}2,4x-1[8:1]*-7[8:1],4x,
{16}6x,5,{8}7,1x/8x,7/2,{16}E3,B3,B4,E5,E7,B7,B8,E1,
,,,,{4}4x/5xq4[8:3],3b,3,
{16}2h[16:3],,,1,{8}2,8-6[8:1],,3-8[8:1],,5,
{4}5,2/6,7/3>8[4:1],8<5[4:1],
5>2[4:1],2,8h[8:1],8h[8:1]/1h[8:1],
{16}B7/E7/A7/D7/A6,,,B8/E1/B1,,,{8}B3/E3/A3/D3,{4}4x/5xh[4:1],{16}3-1[8:1],5,{8}4,
{4}6h[4:1],{16}4-8[8:1],6,{8}5,{4}7h[4:1],{16}1s5[4:1],8,{8}2,
6x,6,7x,7,{16}4x-1[8:1],,,5x,{8}4x,6x,
{4}7h[8:1]/3h[8:1],5h[8:1]/1h[8:1],{16}3,3,{8}4,6x/2bx,2x/6bx,
{16}5,5,{8}4,{4}7xv4[8:1]/3x-8[8:1],7x/3x,1x<6[8:1],
{8}2,3,4/5,6,{4}7/8>3[8:1],5<8[8:1],
{16}1xh[8:1],,,2xh[8:1],,,{8}3x,{4}8-5[8:1]/4-1[8:1],8x/4x,
{8}3h[4:1],4,5,6,{4}3<6[4:1],6<1b[4:1],
{8},5,5,4,{4}6/2V47[4:1],7V51[4:1],
{8}8,8,7,7,{4}3>8[8:1]/8<5[8:1],3/8q4[16:3],
{8}5,6,7,8,{4}5/1x<6[8:1],{8}3,2,
{4}1p5[8:1],{8}3,2,{2}4<3b[4:3]/1p8[8:3],
{4},,,E5,
,E6,,3x/B6,
,3x/B7,,2xh[4:1]/E6,
E5,1xh[4:1]/E7,E4,1xh[4:1]/A7,
A3,{64}B8/B4,C,,,,,,,,,,,,,,,{16}6h[16:3],,,4,{8}6,5,
2h[8:1],4,3,5,7h[4:1],6,5,4,
7/3h[4:1],7,7,7,1h[8:1],5,6/2,7/3,
{4}8v6[8:1]/4v2[8:1],8/4,{8}3x/6x,{24}4,5,4,{4}5-1[4:1],
{2}5bh[4:1],{4}7b/8>3b[8:1],8/5b<8[8:1],
5/2b>5b[8:1],{8}2/7,6v1[8:1],,1p4[16:3],2,3,
{4}3>8[8:1],{8}3/6,5,{4}4-1[8:1],{8}7/4,6,
5,{16}3,4,{8}3,2,{4}1bp4[8:1]/5b<8[8:1],1b>8[16:5],
{8}3bh[4:1],,,4,{4}5pp4[16:5],{8}4,3,
2-6[8:1],1,2/6,7,8-5[8:1],8,1-4[8:1],1,
{4}5,{8}3/7,6/2,5/1,{16}3,4,{8}3,2,
4,6,{4}8-5[8:1]*-3[8:1],8b,{16}6,6,5,7xh[16:3],
{48},,,,,,{24}1,2,3,4/5,6,7,8,,,{4}2b/1-6b[8:1],1/4b-1[8:1],
4/7b-4b[8:1],{8}7/2,1-5[8:1],,5V38[4:1],6,7,
{4}7-4[8:1],{8}7/2,1,{4}8<5[8:1],{8}8/3,2,
1>4[8:1],{16}7,7,{8}1,8,{4}5bv2[8:1]/1b-6[8:1],1bV35-7b[4:1],
{8}8bh[4:1],,,1bx/8bxz4[4:1],{4}2bx/7bx,{8}3,2,
1-6[8:1],8,{4}7-3[8:1],7bx/5xh[4:1],{16}2x,1x,8x,7x,
{4}6xpp5[16:5],{8}2,3,{4}4-8[8:1],3/4,
4-7[8:1]*-8[8:1],4,B2/A2/E3/B3/A3,A6/E6/D6,
{2}Cf/4xw8[8:1],{4}1bx<6[8:1],2x/1x,
{8}4,4,6,5/7,{16}3,4,3,4,{4}2h[4:1],
{8}4-1b[8:1],5,{4}4/6,8x>3[8:1],7x/8x,
{8}5,6,3,2/4,{16}6,5,6,5,{4}7V58[4:1],
{2}8-4b[8:1]/7-4[8:1],{4}2bx-6[8:1],2x/1x,
{16}7x,5,{8}6,4x/3x,2x/1x,{16}7xv4[8:1],8,6x,8,{4}7x,
{8}2<7b[8:1],3,{4}2/4,5xp8[8:1]*q2[8:1],5x,
{16}3x,4,{8}2,5x/1x,3/7,{16}B7/E7,B1,B5/E5,B3,B8/E1,B2,B6/E7,B4,
{1}C,
E
