&title=フリィダム ロリィタ
&artist=ねじ式
&first=0
&des=fullower
&wholebpm=150
&shortid=707
&genre=niconicoボーカロイド
&cabinate=SD
&version=maimai MiLK
&chartconverter=Neskol
&des_2=-
&des_3=-
&des_4=LabiLabi
&des_5=玉子豆腐
&des_6=
&lv_5=13
&lv_7=13+
&inote_5=(150){1},
{8},,,,,,,,
{16}1/8,,,3^6[12:1]/6^3[12:1],
{8},,,1pp1[4:1]/8,,1/7,,5w1[8:1],,,,
{16}3,7,3,7,3,,
{16}1/8,,,2-6[12:1]/6-2[12:1],,,,,,,1/8^5[8:1],,,,2/8^3[8:1],,
{16},,6h[8:3]/8,,,,,,
{32}5,4,3,2,1,8,7,6,1b/5b,,,,,,,,
{16}2h[16:3],,,3h[16:3],,,4-1[8:1],,,,4>6[4:1]/6,,,,1/4,,
{16},,2,3,4-8[8:1],,4,,6-1[8:1],,6,,2-5[8:1],,2,,
{16}2b/8,,,7h[16:3],,,6h[4:1],,,,5-7[8:1]*q1[8:1],,,,5,,
{8},4-2[8:1]*p8[8:1],,4,,2,1,8,
{16}7h[16:3],,,6h[16:3],,,5-8[8:1],,,,5<3[4:1]/3,,,,8/5,,
{16},,7,6,5-1[8:1],,5,,3-8[8:1],,3,,7-4[8:1],,7,,
{16}1/7b,,,2h[16:3],,,3,,4,,3/4,,,,,,
{8}6pp5[2:1],,5,,4,,3qq5[2:1],,
{16}4,,,5,,,6,,6-3[8:1],,,,,,,,
{8}2qq7[2:1],,6,,5,,4,,
{8}3h[8:1],4h[8:1],5h[8:1],6h[8:1],7^2[8:1],,,,
{8}8V64[2:1],,4,,3,,2,,
{16}1s5[2:1],,,5,,,6,,6,,,,,,
{8}6-4[8:1],4-8[8:1],,,3-1[8:1],1-4[8:1],,,7-5[8:1],
{8}5v8[4:1]*V31[4:1],,,,,{16}7,8,7,,1/6,,
{16}7-4[8:1],,,,3h[8:1],,,,5/2,,3,4,3,,5/2,,
{16}1-4[8:1],,,,6,,7,,8/5-2[8:1],,,,7,,,,
{16}1-5[8:1],,,,6h[8:1],,,,4/7,,6,5,6,,4/7,,
{16}8-5[8:1],,,,3,,2,,1/8-5[8:1],,,,,,,,
{16}3v8[8:1],,,,7h[8:1],,,,1/6,,7,8,7,,1V74[2:1]/6,,
{16}5V38[8:3],,,,,,,,,,,,,,1,,
{8}8/7p3[8:1],{16},1,,,{8}2,1/7v4[8:1],{16},2,,,{8}3,2/7v5[8:1],{16},3,,,4,,
{12}2,4,3,7,5,6,
{16}5h[16:3]/7h[8:3],,,,,,5,,4h[16:3]/7h[8:3],,,,,,4,,
{16}3h[16:3]/7h[8:3],,,,,,3,,2-5[8:1]/8-5[8:1],,,,,,,,
{16}4h[16:3]/6h[8:3],,,,,,4,,3h[16:3]/6h[8:3],,,,,,3,,
{4}2/8-4[8:1],2-6[8:1]/8,2/8-4[8:1],2/8,
{16}4h[16:3]/2h[8:3],,,,,,4,,5h[16:3]/2h[8:3],,,,,,5,,
{16}6h[16:3]/2h[8:3],,,,,,6,,7-4[8:1]/1-4[8:1],,,,,,,,
{16}5h[16:3]/6h[16:3],,,,,,3,,2h[16:3]/4h[16:3],,,,,,7,,
{8}1b-4[8:1]/8b-5[8:1],,,,{16}1-5[8:1],8,2,7,1,,,,
{16}7/4q8[8:1],,,3,4-1[8:1],,2,,4/8p4[8:1],,,6,8,,7,,
{8}1/2,3,4/5,6,7-4[8:1]/8q4[8:1],,,,
{16}2/5p1[8:1],,,6,5-8[8:1],,7,,5/3^6[8:1],,,2,3,,1,,
{8}4/7-2[8:1],,3-6[8:1]/7,,5-8[8:1]/3,,4/5,,
{16}2/5p1[8:1],,,6,5-8[8:1],,7,,5/1q5[8:1],,,3,1,,2,,
{8}8/7,6,5/4,3,2-5[8:1]/1p5[8:1],,,,
{16}7-3[8:1]/8,,,4,,,2,,7-3[8:1]/8,,,4,,,2,,
{16}7/8,,6,4,5,3,4,2,3,,8b/1b,,7b/2b,,,,
{16}2/5p1[8:1],,,6,5-8[8:1],,7,,5/1q5[8:1],,,3,1,,2,,
{8}8/7,6,5/4,3,2-5[8:1]/1p5[8:1],,,,
{16}7/4q8[8:1],,,3,4-1[8:1],,2,,4/6^3[8:1],,,7,6,,8,,
{8}5/2-7[8:1],,6-3[8:1]/2,,4-1[8:1]/6,,5/4,,
{16}2/5p1[8:1],,,6,5-8[8:1],,7,,5/1q5[8:1],,,3,1,,2,,
{8}8/7,6,5/4,3,2-5[8:1]/1p5[8:1],,,,
{16}2-6[8:1]/1,,,5,,,7,,2-6[8:1]/1,,,5,,,7,,
{8}1p4[4:1]/2v5[4:1],,,,,8b/3b,1b/6b,,
{16}3h[16:3],,,4h[16:3],,,5-1[8:1],,,,7/5>7[4:1],,,,1/5,,
{16},,3,4,5-2[8:1],,5,,7-3[8:1],,7,,1-5[8:1],,1,,
{16}1b/7,,,6h[16:3],,,5h[4:1],,,,4q8[8:1]*v1[8:1],,,,4,,
{8},5p1[8:1]*v8[8:1],,5,,1,8,7,
{16}6h[16:3],,,5h[16:3],,,4-8[8:1],,,,2/4<2[4:1],,,,8/4,,
{16},,6,5,4-7[8:1],,4,,2-6[8:1],,2,,8-4[8:1],,8,,
{16}2/8b,,,3h[16:3],,,4,,5,,5/6,,,,,,
{16}7-3[8:1]/8,,,,,,,,2/5,,3,4,,4,3,,
{8}1/2-6[8:1],,,,,5/7,4/8-4[8:1],,
{8}1,,2/5,,{16}3/6,,4,5,,5,4,,
{16}3h[2:1]/6,,,,,,,,
{32}4,5,6,7,8,1,2,3,8b/4b,,,,,,,,
{16}2/5p1[8:1],,,6,5-8[8:1],,7,,5/1q5[8:1],,,3,1,,2,,
{8}8/7,6,5/4,3,2-5[8:1]/1p5[8:1],,,,
{16}2-6[8:1]/1,,,5,,,8,,2-6[8:1]/1,,,5,,,8,,
{16}2/1,,3,5,4,6,5,7,6,,1b/8b,,3b/6b,,,,
{16}7/4<7[8:1],,,3,4p8[8:1],,2,,4/7<4[8:1],,,5,7,,8,,
{8}1/2,3,4/5,6,7<4[8:1]/8q4[8:1],,,,
{16}2/5>2[12:1],,,6,5q1[8:1],,7,,5/4<7[8:1],,,3,4-8[8:1],,2,,
{8}4/7-3[8:1],,2-6[8:1]/7,,5-1[8:1]/2,,4/5,,
{16}2/5>2[8:1],,,6,5q1[8:1],,7,,5/2>5[8:1],,,4,2,,1,,
{8}8/7,6,5/4,3,2>5[8:1]/1p5[8:1],,,,
{16}7-3[8:1]/8,,,5,,,1,8,7-3[8:1],,,5,,,1,8,
{4}7-3[8:1],2-5[8:1],6-4[8:1],4,
{8}1-3[8:1]/8-4[8:1],5/6,,,1-3[8:1]/8-3[8:1],5/6,,,
{1}6<3[2:1],
{16}3h[16:3],,,4h[16:3],,,5-1[8:1],,,,5>7[4:1]/7,,,,1/5,,
{16},,3,4,5-1[8:1],,5,,7-3[8:1],,7,,2-6[8:1],,2,,
{16}2b/1,,,8h[16:3],,,7h[4:1],,,,6^1[8:1]*q2[8:1],,,,6,,
{8},5^2[8:1]*p1[8:1],,5,,1,8,7,
{16}6h[16:3],,,5h[16:3],,,4-8[8:1],,,,4<2[4:1]/2,,,,8/4,,
{16},,6,5,4-8[8:1],,4,,2-6[8:1],,2,,7-3[8:1],,7,,
{16}5/7b,,,4h[16:3],,,3,,2,,2-6[8:1],,,,2b/8b-3[8:1],,
{8},1b>6[4:1]/8b,,1b/6b,,,,,
{1},
{1},
{1},
E
&inote_7=(150){1},
{8},,,,,,,,
{16}1/8,,,3^6[12:1]/6^3[12:1],
{8},,,1pp1[4:1]/8,,1/7,,5w1[8:1],,,,
{16}3,7,3,7,3,,
{16}1/8,,,2-6[12:1]/6-2[12:1],,,,,,,1/8^5[8:1],,,,2/8^3[8:1],,
{16},,6h[8:3]/8,,,,,,
{32}5,4,3,2,1,8,7,6,1b/5b,,,,,,,,
{16}2h[16:3],,,3h[16:3],,,4-1[8:1],,,,4>6[4:1]/6,,,,1/4,,
{16},,2,3,4-8[8:1],,4,,6-1[8:1],,6,,2-5[8:1],,2,,
{16}2b/8,,,7h[16:3],,,6h[4:1],,,,5-7[8:1]*q1[8:1],,,,5,,
{8},4-2[8:1]*p8[8:1],,4,,2,1,8,
{16}7h[16:3],,,6h[16:3],,,5-8[8:1],,,,5<3[4:1]/3,,,,8/5,,
{16},,7,6,5-1[8:1],,5,,3-8[8:1],,3,,7-4[8:1],,7,,
{16}1/7b,,,2h[16:3],,,3,,4,,3/4,,,,,,
{8}6pp5[2:1],,5,,4,,3qq5[2:1],,
{16}4,,,5,,,6,,6-3[8:1],,,,,,,,
{8}2qq7[2:1],,6,,5,,4,,
{8}3h[8:1],4h[8:1],5h[8:1],6h[8:1],7^2[8:1],,,,
{8}8V64[2:1],,4,,3,,2,,
{16}1s5[2:1],,,5,,,6,,6,,,,,,
{8}6-4[8:1],4-8[8:1],,,3-1[8:1],1-4[8:1],,,7-5[8:1],
{8}5v8[4:1]*V31[4:1],,,,,{16}7,8,7,,1/6,,
{16}7-4[8:1],,,,3h[8:1],,,,5/2,,3,4,3,,5/2,,
{16}1-4[8:1],,,,6,,7,,8/5-2[8:1],,,,7,,,,
{16}1-5[8:1],,,,6h[8:1],,,,4/7,,6,5,6,,4/7,,
{16}8-5[8:1],,,,3,,2,,1/8-5[8:1],,,,,,,,
{16}3v8[8:1],,,,7h[8:1],,,,1/6,,7,8,7,,1V74[2:1]/6,,
{16}5V38[8:3],,,,,,,,,,,,,,1,,
{8}8/7p3[8:1],,,2,1/7v4[8:1],,,3,2/7v5[8:1],,,,
{12}2,4,3,7,5,6,
{16}5h[16:3]/7h[8:3],,,,,,5,,4h[16:3]/7h[8:3],,,,,,4,,
{16}3h[16:3]/7h[8:3],,,,,,3,,2-5[8:1]/8-5[8:1],,,,,,,,
{16}4h[16:3]/6h[8:3],,,,,,4,,3h[16:3]/6h[8:3],,,,,,3,,
{4}2/8-4[8:1],2-6[8:1]/8,2/8-4[8:1],2/8,
{16}4h[16:3]/2h[8:3],,,,,,4,,5h[16:3]/2h[8:3],,,,,,5,,
{16}6h[16:3]/2h[8:3],,,,,,6,,7-4[8:1]/1-4[8:1],,,,,,,,
{16}5h[16:3]/6h[16:3],,,,,,3,,2h[16:3]/4h[16:3],,,,,,7,,
{8}1b-4[8:1]/8b-5[8:1],,,,{16}1-5[8:1],8,2,7,1,,,,
{16}7/4q8[8:1],,,3,4-1[8:1],,2,,4/8p4[8:1],,,6,8,,7,,
{8}1/2,3,4/5,6,7-4[8:1]/8q4[8:1],,,,
{16}2/5p1[8:1],,,6,5-8[8:1],,7,,5/3^6[8:1],,,2,3,,1,,
{8}4/7-2[8:1],,3-6[8:1]/7,,5-8[8:1]/3,,4/5,,
{16}2/5p1[8:1],,,6,5-8[8:1],,7,,5/1q5[8:1],,,3,1,,2,,
{8}8/7,6,5/4,3,2-5[8:1]/1p5[8:1],,,,
{16}7-3[8:1]/8,,,4,,,2,,7-3[8:1]/8,,,4,,,2,,
{16}7/8,,6,4,5,3,4,2,3,,8b/1b,,7b/2b,,,,
{16}2/5p1[8:1],,,6,5-8[8:1],,7,,5/1q5[8:1],,,3,1,,2,,
{8}8/7,6,5/4,3,2-5[8:1]/1p5[8:1],,,,
{16}7/4q8[8:1],,,3,4-1[8:1],,2,,4/6^3[8:1],,,7,6,,8,,
{8}5/2-7[8:1],,6-3[8:1]/2,,4-1[8:1]/6,,5/4,,
{16}2/5p1[8:1],,,6,5-8[8:1],,7,,5/1q5[8:1],,,3,1,,2,,
{8}8/7,6,5/4,3,2-5[8:1]/1p5[8:1],,,,
{16}2-6[8:1]/1,,,5,,,7,,2-6[8:1]/1,,,5,,,7,,
{8}1p4[4:1]/2v5[4:1],,,,,8b/3b,1b/6b,,
{16}3h[16:3],,,4h[16:3],,,5-1[8:1],,,,7/5>7[4:1],,,,1/5,,
{16},,3,4,5-2[8:1],,5,,7-3[8:1],,7,,1-5[8:1],,1,,
{16}1b/7,,,6h[16:3],,,5h[4:1],,,,4q8[8:1]*v1[8:1],,,,4,,
{8},5p1[8:1]*v8[8:1],,5,,1,8,7,
{16}6h[16:3],,,5h[16:3],,,4-8[8:1],,,,2/4<2[4:1],,,,8/4,,
{16},,6,5,4-7[8:1],,4,,2-6[8:1],,2,,8-4[8:1],,8,,
{16}2/8b,,,3h[16:3],,,4,,5,,5/6,,,,,,
{16}7-3[8:1]/8,,,,,,,,2/5,,3,4,,4,3,,
{8}1/2-6[8:1],,,,,5/7,4/8-4[8:1],,
{8}1,,2/5,,{16}3/6,,4,5,,5,4,,
{16}3h[2:1]/6,,,,,,,,
{32}4,5,6,7,8,1,2,3,8b/4b,,,,,,,,
{16}2/5p1[8:1],,,6,5-8[8:1],,7,,5/1q5[8:1],,,3,1,,2,,
{8}8/7,6,5/4,3,2-5[8:1]/1p5[8:1],,,,
{16}2-6[8:1]/1,,,5,,,8,,2-6[8:1]/1,,,5,,,8,,
{16}2/1,,3,5,4,6,5,7,6,,1b/8b,,3b/6b,,,,
{16}7/4<7[8:1],,,3,4p8[8:1],,2,,4/7<4[8:1],,,5,7,,8,,
{8}1/2,3,4/5,6,7<4[8:1]/8q4[8:1],,,,
{16}2/5>2[12:1],,,6,5q1[8:1],,7,,5/4<7[8:1],,,3,4-8[8:1],,2,,
{8}4/7-3[8:1],,2-6[8:1]/7,,5-1[8:1]/2,,4/5,,
{16}2/5>2[8:1],,,6,5q1[8:1],,7,,5/2>5[8:1],,,4,2,,1,,
{8}8/7,6,5/4,3,2>5[8:1]/1p5[8:1],,,,
{16}7-3[8:1]/8,,,5,,,1,8,7-3[8:1],,,5,,,1,8,
{4}7-3[8:1],2-5[8:1],6-4[8:1],4,
{8}1-3[8:1]/8-4[8:1],5/6,,,1-3[8:1]/8-3[8:1],5/6,,,
{1}6<3[2:1],
{16}3h[16:3],,,4h[16:3],,,5-1[8:1],,,,5>7[4:1]/7,,,,1/5,,
{16},,3,4,5-1[8:1],,5,,7-3[8:1],,7,,2-6[8:1],,2,,
{16}2b/1,,,8h[16:3],,,7h[4:1],,,,6^1[8:1]*q2[8:1],,,,6,,
{8},5^2[8:1]*p1[8:1],,5,,1,8,7,
{16}6h[16:3],,,5h[16:3],,,4-8[8:1],,,,4<2[4:1]/2,,,,8/4,,
{16},,6,5,4-8[8:1],,4,,2-6[8:1],,2,,7-3[8:1],,7,,
{16}5h[16:3],,,4h[16:3],,,3,,2,,2-6[8:1],,,,2b/8b-3[8:1],,
{8},1b>6[4:1]/8b,,1b/6b,,,,,
{1},
{1},
{1},
E
