&title=奇々怪々Wonderland
&artist=『和香様の座する世界』op
&first=0.002
&des=Tane
&freemsg=『和香様の座する世界』op
&wholebpm=
&des_1=Tane
&des_2=Tane
&des_3=Tane
&des_4=Tane
&des_5=Tane
&lv_1=4
&lv_2=5
&lv_3=7
&lv_4=10
&lv_5=14
&inote_1=(187){1},
{2}18,,36,,
{4}45,,,,
{4}45,,,,
{2}1,,3,{4}4,,
{2}5,,8-4[2:1],,
{8}3,,,3,
,,,7,
{8},,,7,
,,,,
{8}5,,,5,
,,,36,
{8},,,27,
,,,,
{2}8,,6,{4}5,,
{2}4,,1-5[2:1],,
{8}6,,,6,
,,,2,
{8},,,2,
,,,,
{8}34,,,,
,,,78,
{8},,,,
,,,,
{2}18,,3h[8:4]/6h[8:4],,
{2}3,,2,,
{2}3,,4,,
{2}3,,2,,
{2}1^4[1:1],,,,
{2}6,,7,,
{2}6,,5,,
{2}6,,2,2,
{2}7,,
{1}2<5[8:10],
{1},
{1}5v4[2:3],
{1},
{2}2,,4,,
{2}5,6,
{4}7b,,,,
{4}2b,,,,
{4}7b,,,,
{4}1b,,2b,,
{8}1,,,,
1,,,6,
{8},,,6,
,,,,
{8}8,,,,
8,,,5^3[2:1],
{1},
{8}34,,,,
,,,56,
{8},,,,
,,,,
{8}7,,,,
2,,,1,
{8},,,3,
,,,,
{8}8,,,,
8,,,3,
{8},,,3,
,,,,
{8}1,,,,
1,,,4,
{1},
{8}65,,,,
,,,43,
{8},,,,
,,,,
{8}2,,,,
7,,,,
{8}1,,,,
1,,,2,
{8},,,2,
,,,,
{8}8,,,,
8,,,7,
{8},,,7,
,,,,
{8}3,,,,
3,,,4,
{8},,,4,
,,,12,
{8},,,78,
,,,7,
{8},,,5,
,,,,
{8}1,,,,
3,,,8,
{8},,,6,
,,,,
{8}2,,,,
4,,,7,
{1},
{8}3,,,,
57,,,6,
{8},,,24,
,,,,
{8}8,,,7,
,,,6,
{1},
{8}1,,,,
8,,,18,
{8},,,8h[8:10],
,,,,
{8},,,,
,,,,
{1}8-4[4:1],
{8}1b,,,,
1b,,,,
{8}8b,,,,
8b,,,,
{4}4b,,5b,,
{4}4b,,5b,,
{1},,,,,,,,
&inote_2=(187){1},
{2}18,,36,,
{4}45,,,,
{4}45,,,,
{2}1,,3,{4}4,,
{2}5,,8-4[2:1],,
{8}3,,,3,
,,,7,
{8},,,7,
,,,,
{8}5,,,5,
,,,36,
{8},,,27,
,,,,
{2}8,,6,{4}5,,
{2}4,,1-5[2:1],,
{8}6,,,6,
,,,2,
{8},,,2,
,,,,
{8}34,,,,
,,,78,
{8},,,,
,,,,
{2}1h[2:1]/8h[2:1],,3h[8:4]/6h[8:4],,
{2}3,,2h[2:1],,
{2}3,,4h[2:1],,
{2}3,,2h[2:1],,
{2}1^4[1:1],,,,
{2}6,,7h[2:1],,
{2}6,,5h[2:1],,
{2}6,,2,2,
{2}7,,
{1}2<5[8:10],
{1},
{1}5v4[2:3],
{1},
{2}2,,4,,
{2}5,6,
{4}7b,,,,
{4}2b,,,,
{4}7b,,,,
{4}1b,,2b,,
{8}1,,,,
1,,,6,
{8},,,6,
,,,,
{8}8,,,,
8,,,5^3[2:1],
{1},
{8}34,,,,
,,,56,
{8},,,,
,,,,
{8}7,,,,
2,,,1,
{8},,,3,
,,,,
{8}8,,,,
8,,,3,
{8},,,3,
,,,,
{8}1,,,,
1,,,4^6[2:1],
{1},
{8}65,,,,
,,,43,
{8},,,,
,,,,
{8}2,,,,
7,,,,
{8}1,,,,
1,,,2,
{8},,,2,
,,,,
{8}8,,,,
8,,,7,
{8},,,7,
,,,,
{8}3,,,,
3,,,4,
{8},,,4,
,,,12,
{8},,,78,
,,,7,
{8},,,5,
,,,,
{8}1,,,,
3,,,8,
{8},,,6,
,,,,
{8}2,,,,
4,,,7^4[2:1],
{1},
{8}3,,,,
57,,,6,
{8},,,24,
,,,,
{8}8,,,7,
,,,6,
{1},
{8}1,,,,
8,,,18,
{8},,,8h[8:10],
,,,,
{8},,,,
,,,,
{1}8-4[4:1],
{8}1b,,,,
2b,,,,
{8}3b,,,,
4b,,,,
{4}4b,,5b,,
{4}1b,,7b,,
{1},,,,,,,,
&inote_3=(187){1},
{2}18,27,36,45,
{4}45,,45,,
{4}45,,36,,
{2}1,2,3,{4}4,4,
{2}5,7,8-4[2:1],,
{8}3,,,3,
,,,7,
{8},,,7,
,,,,
{8}5,,,5,
,,,36,
{8},,,2h[2:1]/7h[2:1],
,,,,
{2}8,7,6,{4}5,5,
{2}4,2,1-5[2:1],,
{8}6,,,6,
,,,2,
{8},,,2,
,,,,
{8}34,,,,
,,,78,
{8},,,,
,,,,
{2}1h[2:1]/8h[2:1],,3h[8:4]/6h[8:4],,
{2}3,3,2h[2:1],,
{2}3,3,4h[2:1],,
{2}3,3,2h[2:1],,
{2}1^4[1:1],,,,
{2}6,6,7h[2:1],,
{2}6,6,5h[2:1],,
{2}6,6,2,2,
{2}7,7,
{1}2<5[8:10],
{1},
{1}5v4[2:3],
{1},
{2}2,3,4,,
{2}5,6,
{4}7b,,1b,,
{4}2b,,8b,,
{4}7b,,2b,,
{4}1b/8b,,2b/7b,,
{8}1,,1,,
1,,,6,
{8},6,,6,
,,,,
{8}8,,8,,
8,,,5^3[2:1],
{1},
{8}34,,,,
,,,56,
{8},,,,
,,,,
{8}7,,,,
2,,,1,
{8},2,,3,
,,,,
{8}8,,8,,
8,,,3,
{8},3,,3,
,,,,
{8}1,,1,,
1,,,4^6[2:1],
{1},
{8}65,,,,
,,,43,
{8},,,,
,,,,
{8}2,,,,
7,,,,
{8}1,,1,,
1,,,2,
{8},2,,2,
,,,,
{8}8,,8,,
8,,,7,
{8},7,,7,
,,,,
{8}3,,3,,
3,,,4,
{8},4,,4,
,,,12,
{8},,,78,
,,,7,
{8},6,,5,
,,,,
{8}1,,2,,
3,,,8,
{8},7,,6,
,,,,
{8}2,,3,,
4,,,7^4[2:1],
{1},
{8}3,,,,
57,,,6,
{8},,,24,
,,,,
{8}8,,,7,
,,,6,
{1},
{8}1,,,,
8,,,18,
{8},,,8h[8:10],
,,,,
{8},,,,
,,,,
{1}8-4[4:1],
{8}1b/8b,,,,
2b/7b,,,,
{8}3b/6b,,,,
4b/5b,,,,
{4}2b/4b,,5b/7b,,
{4}1b/8b,,2b/7b,,
{1},,,,,,,,
&inote_4=(187){1},
{2}1h[8:2]/2h[8:2],7h[8:2]/8h[8:2],5h[8:2]/6h[8:2],3h[8:2]/4h[8:2],
{4}34,3,56,6,
{4}45,36,27,,
{8}1h[4:1],,7h[4:1],,
3,3,3,,
{8}4h[4:1],,5,,
6,6,6,,
{8}45,,3,,
2-5[8:1],,6,,
{8}7/8>5[2:1],,,,
,,,,
{8}7h[8:3],,,6,
,4,,1h[2:1],
{8},,,3,
,5,,,
{8}6,,5,46,
,78,,12,
{8},45,,2h[2:1]/7h[2:1],
,,,,
{8}8h[4:1],,2h[4:1],,
6,6,6,,
{8}5h[4:1],,4,,
3,3,3,,
{8}54,,6,,
7-4[8:1],,3,,
{8}2/1<4[2:1],,,,
,,,,
{8}2h[8:3],,,3,
,5,,8h[2:1],
{8},,,6,
,4,,,
{8}34,,3,4,
,12,,78,
{8},45,,2h[2:1]/7h[2:1],
,,,,
{2}1h[8:3]/8h[8:3],2h[8:3]/7h[8:3],3h[8:3]/6h[8:3],45,
{4}34,5,56,4,
{4}2pp4[2:1],7,7,7,
{4}47,6,25,3,
{4}6-8[8:1],2-4[8:1],1-5[8:1],,
{4}65,4,43,5,
{4}7z3[2:1],2,2,2,
{8}1,1,,2,
,8,,78,
{8},12,,1^4[4:1]/8^5[4:1],
,,,,
{4}4h[8:1]/5,46,4/5h[8:1],35,
{4}2,7,3/4h[8:1],5h[8:1]/6,
{4}3pp6[2:1],,{8},,,7,
{8},5,5,4,
4,,45,,
{8}3,2,1,2-6[8:1],
,8,8,,
{8}6,7,8,7-3[8:1],
,1,1,,
{8}18,18,,56,
,34,34,,
{1}2<5[8:5],
{1}7p2[2:1],
{1}2qq7[8:5],
{1}5v4[2:1],
{4}2,7,3,6,
{8}3,3,5,5,
4v1[8:1]/5v8[8:1],,,,
{4}27,4,27,5,
{4}2b/7b,27,1b/4b,14,
{4}2b/7b,27,5b/8b,58,
{4}2b/7b,14,2b/7b,58,
{4}1b/8b,4b/5b,2b/7b,,
{8}2-7[8:1],,6-3[8:1],,
1,1-5[1:1],,7,
{8},3,,7,
,,,8,
{8}8,8,,7,
,6,,5p4[8:5],
{1},
{8}1-4[8:1],,5-8[8:1],,
2,2,,8h[8:3],
{8},,5-1[8:1],,
7-3[8:1],,,,
{8}2,2,3,3,
4,4,,5b/6b,
{8},1b/8b,,3b/4b,
,,,,
{8}7-2[8:1],,3-6[8:1],,
8,8-4[1:1],,2,
{8},6,,2,
,,,1,
{8}1,1,,2,
,3,,4q5[8:5],
{1},
{8},,1,,
2,2,,34,
{8},56,,34,
,,1,,
{8}1,1,,78,
,12,,12,
{8}2,2,8,8-5[8:1],
,2-7[8:1],,6-3[8:1],
{8},1-4[8:1],,8-5[8:1],
,,,1,
{8}2,2-5[8:1],,6-1[8:1],
,3-7[8:1],,5-8[8:1],
{8},1-4[8:1],,5,
,,,6,
{8}7,7,1,1,
,2,,78,
{8},12,,45,
,3,4,2,
{8},,1,1,
,,8,8,
{8},7,,6-3[8:1],
,,,,
{8}1-5[8:1],,7-3[8:1],,
2,2-7[8:1],,5-1[8:1],
{8},3-7[8:1],,6-4[8:1],
,,,,
{8}3,3,,2,
,1,,8-4[8:5],
{1},
{8}3,,1,,
57,57,,7-4[8:1],
{8},3-8[8:1],,7-2[8:1],
,,,,
{8}8,8,,7,
,6,,5q4[8:5],
{1},
{8}1,1,,1,
8,8,,8,
{8},17,,26,
,4/8h[8:10],,,
{8},,,,
,,,,
{1}8-4[8:1],
{8}1b/8b,18,18,,
2b/7b,27,27,,
{8}3b/6b,36,36,,
4b/5b,45,45,,
{4}2b/4b,45,5b/7b,45,
{4}1b/8b,4b/5b,2b/7b,,
{1},,,,,,,,
&inote_5=(187){1},
{8}2b/4b,2/4,2/4,,
5b/7b,5/7,5/7,,{8}3b/4b,3/4,3/4,,
5b/6b,5/6,5/6,,
{16}2b/4b,,3,4,
3,,,,
5b/7b,,6,5,
6,,,,
{4}8b/1b-5[8:1],1b/8b-4[8:1],1b/8b,{16}3,5,2,6,
{16}1h[16:3],,,7,
2h[16:3],,,8,
3,,3,4,
3,,2,,
{16}5h[16:3],,,3,
6,,6,5,
6,,7,,
34,,,,
{16}24,,35,,
24,,,,
2,,2,4,
3,,6,,
{8}5-3[8:1]/7,,8,8,
{16}8,3,7,2,
6,1,5,,
{8}1-5[8:1],2,3,4-1[8:1],
,6,,1-4[8:1],
{8},7,6,5-1[8:1],
{16},,2,3,
4,,,,
{8}48,37,25,3/4-8[8:1],
,2-6[8:1],,8-4[8:1],
{8},1,,{16}1,,
1,8,7,6,
5,4,3,,
{16}8h[16:3],,,2,
7h[16:3],,,1,
6,,6,5,
6,,7,,
{16}4h[16:3],,,6,
3,,3,4,
3,,2,,
65,,,,
{16}75,,64,,
75,,,,
7,,7,5,
6,,3,,
{8}4-6[8:1]/2,,1,1,
{16}1,6,2,7,
3,8,4,,
{8}8-4[8:1],7,6,5-8[8:1],
,3,,8-5[8:1],
{16},,3,,2
,,1-5[8:1],2,
{16}3,,,,
,,,,
{8}15,,24,36,
,4/8-4[8:1],,2-6[8:1],
{8},4-8[8:1],,1,
{16},,1,2,
3,4,5,,
{16}5b/7b,,57,,
2,1,2,,
2b/4b,,24,,
7,8,7,,
{8}17,,28,,
45,,{16}4,5,4,,
{8}4h[8:1]/5,,64,,
4/5h[8:1],,35,,
{8}1/2h[8:1],,28,,
78,6,12,3,
{8}4h[8:1]/7,,46,,
5h[8:1]/2,,35,,
{16}3,,4,,
6,,5,,
45,,4,5,
4,,5,4,
{8}5h[8:1],,24,,
4h[8:1],,57,,
{8}3h[8:1],,24,,
57,8,24,1,
{8}1,2pp4[8:1]/8,,7qq5[8:1],
,1pp3[8:1],,8qq6[8:1],
{8},2pp4[8:1],,7,
{16},,8,,
8,1,8,,
{8}8h[8:1]/1,,83,,
1h[8:1]/8,,61,,
{8}8h[8:1]/2,,4h[8:1]/8,,
48,6,15,3,
{8}47,,61,,
1/5h[8:1],,3/8h[8:1],,
{16}7,,6,,
2,,3,,
45,,4,5,
4,,5,3,
{16}4,3,4-7[8:1],3,
4,,1,,
{8},17,1/7h[4:1],,
{16}5,6,5-2[8:1],6,
5,,8,,
{8},28,2h[4:1]/8,,
{16}1,2,1-5[8:1],2,
1,,3,,
{8},15,15,,
{8}1>6[8:5],,5,,
6,,7,,
{8}7p2[2:1],,1,1,
1,,,1,
{8}1-5[8:1],,4-8[8:1],,
2^7[4:1],,7pp2[2:1],,
{8}5v4[4:1],,,,
{16},,15,,
1,2,3,,
{8}7,8,2,1,
6,5,3,4,
{8}6,6,3,3,
{16}24,,3,4,
2,,6,5,
{8}7,,18,,
18,,{16}1,8,1,,
{8}2b/7b,3/6,4b/5b,,
1b/8b,2/7,3b/6b,,
{8}7b/8b,1/6,2b/5b,,
1b/2b,3/8,4b/7b,,
{16}1b/5b,,15,26,
3b/7b,,,,
4b/8b,,48,37,
2b/6b,,,,
{4}8b/1b-5[8:1],1b/8b-4[8:1],1b/8b,{16}1,2,3,,
{8}8-5[8:1],8,1-4[8:1],1,
7-2[8:1],7,,5V72[4:1],
{8},2V41[4:1],,7,
{16}7,6,5,,
,,8,,
{8}8,1,,18,
,27,,2v3[4:1]/7v6[4:1],
{8},,,,
{16}2,4,3,,
7,5,6,,
{8}1v4[8:1],1,6,6,
7-4[8:1],7,,8z4[4:1],
{8},4V28[4:1],5,6,
{16}7,,7,6,
5,,,,
{8}1-4[8:1],4,6,8-5[8:1],
5,3,,1b^4[8:1]*^6[8:1],
{8},1b-5[8:1],,1b,{16}6,7,8,1,
2,3,4,5,
{8}3-6[8:1],3,7-2[8:1],7,
4-1[8:1],4,,6V41[4:1],
{8},1V72[4:1],,4,
{16},,,,
4,3,2,1,
{8}8,8,,27,
,45,,3v2[4:1]/6v7[4:1],
{8},,,,
{16}1,8,2,7,
3,6,4,5,
{8}4,,4,,
8,8<4[4:1],,4p8[4:1],
{8},8<4[4:1]*p3[4:1],,,
{16},,,,
,,2,5,
{8}1,3/7>3[4:1],,3>7[4:1],
,5,,3,
{8}2-6[8:1],2,7-3[8:1],7,
,1V73[4:1],,3V58[4:1],
{8},8V24[4:1],,5,
{16},,5,6,
7,,1,,
{8}2-6[8:1],2,,8V26[4:1],
,6V41[4:1],,1V75[4:1],
{8},4,,4,
{16}4,3,2,1,
8,,6,1,
{8}7-3[8:1],7,2-6[8:1],2,
,8,,17,
{8},26,,35,
,4,3,2-4[8:1],
{8},,7,7-5[8:1],
,,8,8V24[4:1],
{8},5,,6,
{16}7,8,1,2,
3,4,5,6,
{8}7-3[8:1]/2,8,7/1-5[8:1],2,
1/8,6V84[4:1],,4V28[4:1],
{8},8V64[4:1],,4,
{16},,,,
,,3,5,
{8}1-5[8:1],1,,7V15[4:1],
,5,,1h[8:3],
{8},,,1,
{16}1,2,3,,
8,7,6,,
{8}8-4[8:1],1,28,,
1-5[8:1],8,17,6h[8:1],
{8},5h[8:1]/7h[8:1],,4v1[8:1]/8v5[8:1],
{16},,,,
,,1,5,
{8}2,2,,38,
,26,,5v4[16:9]/3>6[16:9],
{8},,,,
{16},,,,
,,6,5,
{8}8,8-5[8:1],,2,
1,1-4[8:1],,8,
{8},17,,26,
,4h[8:10]/8h[8:10],,,
{8},,,,
,,,,
{8}4>5[4:1],,,,
{16},,,,
3,5,2,6,
{16}1b,,28,,
3,4,3,,
8b,,17,,
6,5,6,,
{16}2b/8b,,28,,
2,4,2,,
1b/7b,,17,,
7,5,7,,
{16}4b/8b,,48,37,
26,,15,,
1b/5b,,15,26,
37,,48,,
{8}4b/8b-4[8:1],,1b-5[8:1]/8b,,
8b/1b,,,,
{1},,,,,,,,
