&title=花に風
&artist=バルーン:初音ミク
&first=0
&des=illusionika
&lv_5=13
&inote_5=(148)
{1},
{1},
{1},
{8}3,,,5,5,,,3,
7>2[8:1],,5,5,,2/7,3,4/7,6/5,
,4h[8:2]/5,,3,,4/5h[8:2],,6,
,4h[8:2]/5,,3,,4/5h[8:2],,6,
,4h[8:2]/3,,5,,6/5h[8:2],,4,
,4h[8:2]/3,,5,,6/5h[8:2],,4,
,4h[8:2]/2,,5,,7/5h[8:2],,4,
,4h[8:2]/2,,5,,7/5h[8:2],,4,
,3h[8:2]/5,,1,,6h[8:2]/4,,8,
,1/5,6,3,5,2,2,
4<7[8:1],,3,3h[8:3],7,,5-1[8:1],,
5/7<4[8:1],,2,2,,5,,4/7,3,6,
7h[8:3]
,5,5>2[8:1],,6,,
4-8[8:1],,2>5[8:1],2,,6,7,8h[8:3],
1-5[8:1],,,7,6>3[8:1],,2,,
1-5[8:1],,7,6>3[8:1],,1,1,,8-4[8:1],
,2,3<6[8:1],,,7,,
8-4[8:1],,2,3<6[8:1],,,,,
5-1[8:1],5,5,,2,3,4,4>1[8:1],
7,7,,{16}8,7,6-3[8:1],,,,2,,,,
1-5[8:1],,1,,1,,6,,3,,7,,3b-6[8:1],,2,,
7b-2[8:1]/3,,,,7/1b-4[8:1],,,,6b,,,,5,,,,
4-8[8:1],,4,,4,,,,7,,6,,5,,5v8[8:1],,
2,,2,,,,2,3,4>1[8:1],,,,,,,,
7,,,,,,,,7,,,,,,,,
7,,,,,,,,4h/5h,,,,3/7p3[8:1],,8,,
4-8[8:1]/7,,,,5-1[8:1]/4,,,,7p3[8:1]/5,,,,1-5[8:1]/7,,,,
1/7p3[8:1],,8,,7/2>5[8:1],,,,8b,,,,6v1[8:1],,,,
6/2>5[8:1],,,,8/2,,,,7v4[8:1],,3>8[8:1],,7,,3,,
6h[8:2],,,,3,,2,,1v4[8:1]/7,,,,1/5<8[8:1],,,,
5,,2,,3/8,,4h[8:4],,,,6,,7,,8h[8:4],,
,,3,,2,,1h[8:3],,,,,,7<4[8:1],,,,
3v8[8:1]/7,,,,5b-1[8:1]/3,,,,7-4[8:1]/5,,,,1-5[8:1]/7,,,,
8h[8:4]0,,,,,,2,,2,,,,6/2q6[8:1],,7,,
5-1[8:1]/2,,,,4-8[8:1]/5,,,,2q6[8:1]/4,,,,8-4[8:1]/2,,,,
8/2q6[8:1],,1,,2/7<4[8:1],,,,1b,,,,3v8[8:1],,,,
3/7<4[8:1],,,,1/7,,,,1v4[8:1],,5-8[8:1],,1,,5,,
3h[8:4],,,,6,,7,,8v3[8:1],,,,2,,,,
1,,2,,3,,4>1[8:1],,,,5,,6,,7<4[8:1],,
,,2,,1,,8>3[8:1],,,,,,5-1[8:1],,,,
2b>5[8:1]/5,,,,7b-3[8:1]/2,,,,4b>1[8:1]/7,,,,5bv2[8:1]/4,,,,
7b<4[8:1]/5,,7,,7,,,,,,,,,,,,
7h[8:8],,,,,,4,,,,,,3,,,,
2h[8:8],,,,,,4,,,,5,,6,,7,,
7h[8:8],,,,5,,4,,,,,,3,,,,
2h[8:8],,,,,,7,,,,6,,5,,5,,
5h[8:8],,,,,,3,,,,,,4,,,,
3h[8:8],,,,,,6,,,,6,,6,,5,,
4h[8:8],,,,3,,2,,,,,,,,,,
1,,,2,,,3,,,,,,,,,,
5/2,,3,4,3,,5/2,,3,4,3,,5/2,,3,4,
3,,2,4,1h[8:1],,,,7,5,6,5,7,,3,,
2,,1,,8,1,,,8-4[8:1],,,,1,,,,
2h[8:3],,,,,,6,,,,5,,6,,6,,
3-5[8:1],,,,3/5,,,,6h[8:2],,,,,,,,
7-3[8:1],,,,2/7,,,,1h[8:2],,,,,,,,
1>4[8:1],,,,6/1,,,,7h[8:2],,,,,,,,
3-6[8:4]*<6[8:4],,,,,,,,,,,,,,,,
4/7,,6,5,6,,4/7,,6,5,6,,4/7,,6,5,
6,,7,4,8h[8:1],,,,2,4,3,4,2,,7,5,
6,5,7,,1,4,2,4,1-5[8:1],,,,1,,,,
7h[8:4],,,,,,3,,,,2,,3,,3,,
6-4[8:1],,,,6/4,,,,3h[8:2],,,,,,,,
2-6[8:1],,,,7/2,,,,8h[8:2],,,,,,,,
8<5[8:1],,,,3/8,,,,2h[8:2],,,,,,,,
7,,,6,,,5,,,,,,,,,,
,,,,,,,,,,,,,,,,
,,,,,,,,,,,,,,,,
2/8,,4/6,,1/7,,3/5,,1/8-4[8:1],,,,2>5[8:1]/8,,,,
6<1[8:1]/2,,,,4-8[8:1]/6,,,,2>5[8:1]/4,,1,,2/6<1[8:1],,7,,
6/2>5[8:1],,,,2/8-4[8:1],,7,,8/2<7[8:1],,,,,,6h[8:4],,
5,,4,,3,,2h[8:4],,,,7,,8,,1h[8:4],,
,,3,,4,,5h[8:2],,,,,,5>2[8:1],,,,
5/1<6[8:1],,,,1/2-6[8:1],,,,5w1[8:1]/2,,,,5,,,,
7h[8:4],,,,,,3,,3,,,,5<8[8:1],,2,,
5/1>4[8:1],,,,7p3[8:1]/1,,,,2v4[8:1]/7,,,,5<8[8:1]/2,,,,
3-7[8:1]/5,,2,,3/5<8[8:1],,6,,5/1>4[8:1],,,,7-3[8:1]/1,,,,
7/5<8[8:1],,,,2-6[8:1]/5,,,,7v4[8:1]/2,,8,,7/3v8[8:1],,2,,
5<8[8:1]/3,,,,1>4[8:1]/5,,2,,1/8-4[8:1],,,,,,3,,
2,,7,,6,,5h[8:4],,,,3,,2,,1h[8:4],,
,,8,,7,,6h[8:4],,,,,,1b>4[8:1],,,,
5b<8[8:1]/1,,,,5/2b>5[8:1],,,,2/6b<1[8:1],,,,2b-6[8:1]/6,,,,
7,,7,,7,,,,,,,,,,,,
{8}4h[8:2]/5,,3,,4/5h[8:2],,6,
,4h[8:2]/5,,3,,4/5h[8:2],,6,
,4h[8:2]/5,,3,,4/5h[8:2],,6,,
{16}2/4,,,2/5,,,6/2z6[16:3],,,,,,,,,,
{8}4h[8:2]/5,,2,,4/5h[8:2],,7,
,4h[8:2]/5,,3,,4/5h[8:2],,6,
,4h[8:2]/5,,2,,4/5h[8:2],,7,
,4h[8:2]/5,,3,,4/5h[8:2],,6,,
4h[8:2]/5h[8:2],,,3/4,3h[8:2]/4h[8:2],,,
6/5,6h[8:2]/5h[8:2],,,7,8,1,2,3,4h[8:2],,,6,6h[8:2],,,2,2h[8:2],,7v5[8:1],7,
