&title=Aenbharr
&artist=Project Grimoire
&first=-0.484
&des=吃吃
&lv_5=14+
&des_5=吃吃
&inote_5=
(195){4},,,,,,,3,
{2}4h[4:3],{4}6,5h[4:3],
,6,4h[2:1],{8}7,6,
5,4,{4}3/6,5,{8}2,3,
{2}4h[4:3],{8}3,5,{4}6h[4:1],
7,5/4,{8}6h[8:3],,,4,
7/3,6/2,{4}5/1,,3qq4[4:3],
{2}3/7,{4}5,6h[2:1],
,4-8[4:1],7/4,{8}7,6,
5-1[4:1],4,{4}5/3,{8},,3,2,
1/5,1/5,2/6,2/6,{24}3,5,3,5,,,{8}8/4,4/8,
7/3,7/3,{24}6,4,6,4,,,{4}5/1s5[8:1]*z5[8:1],1,
{8},1/8,{4}7/2-6[8:1],2/7-3[8:1],7,
2-5[8:1],2/8-4[8:1],{8}8/1-5[8:1],1,{4}1/7-3[8:1],
7/8-4[8:1],{8}8/6-3[8:1],6,{4}6/1-5[8:1],1/7-4[8:1],
{8}7/3-1[8:1],3,{4}3/8>3[8:1]*<5[8:1],8-4[8:1],8/4,
7-4[8:1],7/1-5[8:1],{8}1/8-4[8:1],8,{4}8/2-6[8:1],
2/1-5[8:1],{8}1/3-6[8:1],3,{4}3/8-4[8:1],8/2-5[8:1],
{8}2/6-8[8:1],6,{4}6/1<6[8:1]*>4[8:1],1-5[8:1],1/5,
7-5[8:1],3/7-1[8:1],{8}4/7-5[8:1],3,{4}7-1[8:1]/2-6[8:1],
7/2-4[8:1],{8}8/2-8[8:1],7,{4}2-4[8:1]/6-8[8:1],2/6,
{8}5/1,4/8,{4}7-4[8:1]/3-8[8:1],7-2[8:1]/3-6[8:1],7/3,
{8}8/4,7/3,{16}2/6h[16:3],,,4,{8}5,3,2/6,3/7,
{16}8/4h[16:3],,,6,{8}5,7,{16}1,5,2,6,3,7,4,8,
3,7,2,6,{4}1-4[8:1]/5-8[8:1],5-2[8:1]/1-6[8:1],5/1-5[8:1],
1/7pp4[4:3],{8}7,6,5,4,3,2,
{2}1-5[8:1],{4}8/2qq5[4:3],{8}2,3,
4,5,6,7,{2}8-4[8:1],
{4}8/1<5[16:3],{8}1/3,3,4,5,{4}6/8>4[16:3],
8/6,7-3[8:1],7/8-4[8:1],8/1-5[8:1],
1/2q5[2:1],2/7h[2:1],,,1/8,
{8}8-4[8:1],1,2,3-7[8:1],2,1,
{2}8>4[8:1],{4}8/1,{8}1-5[8:1],8,
7,6-2[8:1],7,8,{2}1<5[8:1],
{4}8/1,7/2,6/3,{8}5/4,4,
6/3,6,7/2,2,{24}1,2,3,5,6,7,1,2,3,5,6,7,
1,8,1,8,1,8,{32}2,3,4,5,6,7,8,1,6/2h[32:5],5,4,3,,1,8,7,6/2,5/1,{16}4/8,,,{8}5/4,
6<8[8:1],8>2[8:1],2>4[8:1],{4}4<8[4:1],8-4[4:1],
{8}1,2,{4}3,{8}2-4[8:1],4V28[4:1],2V84[4:1],8,
7,6,{4}5-8[8:1],5/2-5[8:1],2/1,
1/8-5[8:1],{8}1/8-4[8:1],2,3-1[8:1]/8<6[8:1],2,{4}8-5[8:1]/3-5[8:1],
8-4[8:1]/3-1[8:1],8/3,6/2h[4:1],{8}7-4[8:1],6,
7/1-5[8:1],2,{4}1pp4[8:3]*qq6[8:3],,,2/7<4[16:3],
{8}7,8,1>4[8:1],2,{4}1<6[8:1],
1-5[8:1],1,{8}7-4[8:1],6,7/3-8[8:1],2,
3/7pp2[8:3],6,{4}3/7,,5/4,
{8}4/3,4/3,2/1,2/1,8/1,7,6/5,6/5,
3/4,3/4,5/4,{16}3/6,2/7,{8}8/1,2,3/5,4,
6/4,7,{32}8/1,2,3,4,5,6,7,8,1/7,2,3,4,5,6,7,8,6/1,2,3,4,5,6,7,8,
{1}5b/1b,
{4}2,3,{2}4h[4:3]`7p5[2:1],
{4},,,7,
{1}6h[4:3]`5qq2[2:1],
{4}7,7,{2}8h[4:3]`1pp5[2:1],
{4},,,2,
{1}3h[4:3]`4q6[2:1],
{4}5,6,{2}7h[2:1]`3qq6[2:1],
{4},7,,8/1-5[8:1],
1/7-3[8:1],7/2-6[8:1],2/8-4[8:1],{8}8/1-5[8:1],1,
1/7-3[8:1],7,1/7,1,{32}1,2,3,4,5,6,7,8,1,2,3,4,5,6,7,8,
{4}1pp4[2:1]/5pp8[2:1],5/1,{8},,,,1h[8:1],
7h[8:1],{16}1,2,3,4,{8}5/1h[16:3],6h[16:3],{16}8,1,2,3,
8/4,1,2,3,{8}6/4,7,{16}1>4[8:1],8,2,8,{8}1-5[8:1],6,
1,7,{16}8<5[8:1],1,7,1,{8}8-4[8:1],3,8,2,
{16}1,5,1,5,2,6,2,6,1,5,1,5,8,7,6,5,
7/4,6,5,4,3/6,5,4,3,5,1,5,1,6,2,6,2,
7,3,7,3,7,8,1,2,3/8,1,2,3,{4}4/8,
{8}4/5h[8:1],{16}2,3,{8}6/4h[8:1],7,5/6h[8:1],4,{16}2,4,3,4,
1,5,4,5,8,6,5,6,4,7,4,7,3,8,3,8,
2,1,2,1,3,5,4,6,5,7,8,6,1,7,2,8,
{4}3-8[8:1]*-6[8:1],3-7[8:1],3/1>4[8:1],1<6[8:1],
1-5[8:1],1,{16}8,1,7,2,8,1,6,3,
8,1,7,2,{32}6,5,4,3,2,1,8,7,6-3[8:1]/2-7[8:1],3,4,5,6,7,8,1,{4}6/2,
8/1-4[8:1],7/1-5[8:1],6/1>3[8:1],8/1-4[8:1],
7/1-5[8:1],{8}8-4[8:1]/1>3[8:1],7,{4}1-5[8:1]/8<6[8:1],8-4[8:1]/1>3[8:1],
1-5[8:1]/8<6[8:1],1/8-4[8:1],2/8<6[8:1],3/8,
{8}1,2,{16}3/7-4[8:1],,,8,{8}7,2,8,7,
{16}6/2-5[8:1],,,1,{8}2,7,{16}1,8,1,8,2,7,2,7,
3,6,3,6,{4}4-2[8:1]/5-2[8:1],4-7[8:1]/5-7[8:1],4/5,
{8}2-7[8:1],6-3[8:1],2-5[8:1],6-1[8:1],2p8[2:1],6,{4}2,
{8}7,6,{4}5,{8}7-2[8:1],3-6[8:1],7-4[8:1],3-8[8:1],
7q1[2:1],3,{4}7,{8}2,3,{4}4,
{8}8/1-5[8:1],1,2-6[8:1],2,3-7[8:1],3,8-4[8:1],8,
7-3[8:1],7,6-2[8:1],6,4,4,{32}4,5,6,7,8,1,2,3,
{4}8<5[8:1]/4>1[8:1],8q4[8:1]/4q8[8:1],4>1[8:1]/8<5[8:1],4/8-4[8:1],
{8}4/8-5[8:1],6,3/8-3[8:1],1,6/8-4[8:1],7,{4}8/1-5[8:1],
{8}1-4[8:1],7,1-6[8:1],8,1/7-4[8:1],7,7/2-5[8:1],2,
2/6-1[8:1],6,{4}6/2>5[8:1],{8}2/8-4[8:1],7,8/1>3[8:1],2,
6/1-4[8:1],6,7/1-5[8:1],7,1/8<6[8:1],8,{4}2h[4:1]/8-5[8:1],
{8}8-4[8:1],2,1/8>2[8:1],1,5/8-3[8:1],5,6/8-4[8:1],6,
7/8<6[8:1],7,{4}8/1h[8:1],{16}1/5,2/6,3/7,4/8,{4}5/1-5[8:1],
{8}3/1-4[8:1],2,6/1-6[8:1],8,3/1-5[8:1],2,{4}1/8-4[8:1],
{8}8-5[8:1],2,8-3[8:1],1,8/2-5[8:1],2,2/7-4[8:1],7,
7/3-8[8:1],3,{4}3/7<4[8:1],{8}7/1-5[8:1],2,1/8<6[8:1],7,
3/8-5[8:1],3,2/8-4[8:1],2,8/1>3[8:1],1,{4}7h[4:1]/1-4[8:1],
{8}1-5[8:1],7,1/6,6,{16}4,5,4,5,4,5,4,5,
4,5,4,5,{4}5-7[8:1]/4-2[8:1],4-8[8:1]/5-1[8:1],4/5,
{16}2,7,2,7,1,8,1,8,2,7,2,7,1,2,3,4,
8,7,6,5,1,2,3,4,6,3,6,3,5,4,5,4,
6,3,6,3,5,6,7,8,4,3,2,1,5,6,7,8,
3,7,2,6,1,5,1,5,2,6,3,7,4,3,2,1,
8/4,7,6,5,4/8,3,2,1,6,2,7,3,8,4,8,4,
7,3,6,2,5,6,7,8,1/5,2,3,4,5/1,2/6,3/7,4/8,
5,1,4,8,3,7,2,6,1,5,8,4,1,2,3,4,
5/8,1,2,3,4/1,2,3,4,7,3,7,3,6,2,6,2,
5,1,5,1,4,5,6,7,3/8,4,5,6,7/4,5,6,7,
2,4,3,7,5,6,2,4,3,7,5,6,1,3,2,8,
6,7,1,3,2,8,6,7,{32}2/1h[8:1],3,4,5,,,,,7/8h[8:1],6,5,4,,,,,5/1,
6/2,7/3,8/4,5w1[8:3],6,7,8,1,2/8,3/7,4/6,{8}5,{32},,,,,,,,,,,,,,,,2/8,
3,4,5,6,7,8,1,2/6,3,4,5,6,7,8,1,4/2qq5[2:1],3,4,5,6,7,8,1,{4}2/6h[2:1],
{32},,,,,,,,,,,,,,,,8-4[8:1]/1-5[8:1],7/2,3/6,4/5,,,,,{4}8<5[8:1]/1>4[8:1],
8w4[8:1]/1w5[8:1],8b/1b,
E
