&title=D/N/A
&artist=Azari/25時、ナイトコードで。× 鏡音リン
&first=0.01
&des=Hakusei
&des_5=Hakusei
&lv_5=13+
&inote_5=(150){4},,,,E7,
E3,{2}Ch[2:1],
{8}2,2,{4}5h[4:1],4,4/6,
{8}7,7,{4}4h[4:1],5,5/3,
{8}2v4-6[4:1],2,{4}7h[4:1],,4/6,
{8}7v5-3[4:1],7,{4}2,1w5[8:1],{32}B1,Cf,{16}B6/B5/B4,,,{4}3h[8:1]/7h[8:1],
2h[8:1]/6h[8:1],{16}1/8,,,1/8,,,{8}2/7,
{4}3h[8:1]/6h[8:1],7h[8:1]/4h[8:1],{16}5/6,,,5/6,,,{8}4/7,
{4}3h[8:1]/8h[8:1],2h[8:1]/7h[8:1],{16}3/6,,,3/6,,,{8}4/5,
{4}3-7[8:1],3/6-1[8:1],{8}6/2,B3/E3,{4}B3/E3,
7h[4:1],6h[4:1],{8}5h[4:1],4,{4}4pp1>3[4:3],
,,,,2h[4:1],
3h[4:1],{8}4h[4:1],5,{4}5-7[8:1],
5-3[8:1],5q1v6[8:3],{2}5,
{8}3,3,5v2[4:1],4,{2}6,
{8}6,6,4q8b[4:1],5,{2}3,
{4}2>6[4:1],6<2[4:1],2V46[4:1],6V82[4:1],
2,4h[8:1],{8}6h[8:1],E2/D2,{4}E2/D2,
7/8>3[8:1],8/5,{8}4/6,{16}7,5,{8}7,6/8,
1/7,{16}2,8,{8}4z8[4:1],5,{16}5,,,6,,,{8}7,
{4}2/1<6[8:1],1/4,{8}5/3,{16}2,4,{8}2,3/1,
{4}8-6[8:1]/2-6[8:1],2-4[8:1]/8-4[8:1],{2}2b/8b,
{8}4/6,4/6,7-3[8:1],3-7[8:1],{16}2,,,2,,,{8}1,
6/8,6/8,5-1[8:1],1-5b[8:1],{16}2,,,2,,,{8}3,
{4}4>1[4:1],1<6[4:1],6>3[4:1],1,
8h[8:1],7h[8:1],{8}6,6,{4}1b-4<5b[4:7]`5b-8>1[4:7],
,,,,,,,,{1}2bq6[2:1]`6bq2b[2:1],
{8}3,3,3/5,3,3/7,7,7/1,7,
{16}7,1,7,1,8,2,8,2,{4}1w5[8:1],1,
{16}7x,3,4,3,8x,4,5,4,{8}7x<4[8:1],{16}8,1x,{8}7,2x,
{16}3x,4,3,7,5x,6,5,8,{8}3x>8[8:1],{16}4,5x,{8}3,6x,
{16}7x,2,1,2,6x,1,8,1,{8}7x<4[8:1],{16}8,1x,{8}7,2x,
{16}3x,3,3,3,3x,3,3,3,{4}3x-8-4b[4:1],{8}3b/5b,6b,
{4}7b-1[8:1]*<4[8:1],7,{8}2/5,{16}3,4,{8}2-5[8:1],5-1b[8:1],
2,{16}8,7,{8}6qq8[4:1],6,{4}1b,{8}1<6[8:1],2,
{4}3/1-5[8:1],1/8,{8}6/4,{16}7,5,{8}6-1[8:1],1,
6/2-5[8:1],3,2/6-1[8:1],7,{4}6/2-8-4b[4:1],{8}2/8,7,
{4}6<1[8:1],6/4-8[8:1],{8}4,{16}7,7,1x-5[8:1],8,{8}2,
1,{16}4,4,6x,5,{8}7,8-4-7b[4:1],8,1,1,
{4}2>5[8:1],2/8-4[8:1],{8}8,{16}3,3,5x-1[8:1],4,{8}6,
5,{16}8,8,2x,1,{8}3,4,5,{4}6h[4:1],
{8}1-5[8:1],{16}7,7,{8}1,8,1-5[8:1],{16}3,3,{8}1,2,
1h[2:1],E4/A3/D4,E6/B6/A6,E2/A2/D2,{4}8<5[8:1],{8}8/2,3,
4-8b[8:1],{16}6,6,{8}4,5,4-8b[8:1],{16}2,2,{8}4,3,
Cfh[4:3],B7h[8:5],B2h[2:1],B6h[8:3],{2}B3h[4:1],
{8},,,,,,,,,,,,,,1/2,
3,
{16}4,5,{8}4,6/8,6,{16}1,7,1,7,2,8,2,8,
{4}3b-7[8:1],4b-8[8:1],5b-1[8:1],{8}6,7,
{4}8x-5[8:1]*-3[8:1],8x,{16}4xh[8:1],,,3xh[8:1]/5xh[8:1],,,{8}6x/2x-4[8:1],
{4}4x-8[8:1],{16}8x,7x,6x,5x,4x<8[8:1],,,1xh[8:1],,,{8}2x,
{4}7x-2[8:1]/3x-6[8:1],3x/7x,{16}4xh[8:1]/8xh[8:1],,,4xh[8:1]/8xh[8:1],{48},,,,,,{24}7x,6x,5x,
{8}4x,{24}1x/2x,3x,4x,{8}5x,{24}8x,7x,6x,{16}5x,4x,5x,4x,{8}5x-8-2[4:1],3,
{4}5/2b-6-4b[4:1],3b,{8}1b,{16}2,4,{8}3v8-2-5[8:3],5,
3,5V31b[16:3],6,7,{4}8h[4:1],{8}1-5[8:1],7,
{4}1-3[8:1]/6-1[8:1],1-7-5-3b[8:3],{16}4,,,2,,,{8}2,
1-5[8:1],2,1/7-3[8:1],6,{4}7/2pp1b[4:1],{8}2/8,7,
{4}6<1[8:1],6/3-8[8:1],{8}3,{16}7,7,1x-5[8:1],8,{8}2,
1x,{16}4,4,6x,5,{8}7,8-5v7b[4:1],8,1,1,
{4}2>5[8:1],2/8-4[8:1],{8}8,{16}3,3,5x-1[8:1],4,{8}6,
5x,{16}8,8,2x,1,{8}3,5/4,4/5,{16}4,5,4,5,
{8}4>1[8:1],6h[8:1],4,6h[8:1],8-4[8:1],5h[8:1],8,7h[8:1],
5-2b[8:1],7h[8:1],5,6h[8:1],1>4b[8:1],6h[8:1],1,7,
8<5[8:1],4h[8:1],8,2h[8:1],4-8[8:1],2h[8:1],4,3h[8:1],
1-6b[8:1],3h[8:1],1,2h[8:1],5<8b[8:1],2h[8:1],5,2,
1>4[8:1],{16}8,8,{8}1,7,5-2[8:1],{16}6,6,{8}5,7,
8<5b[8:1],{16}1,1,{8}8,2,4-8b[8:1],{16}3,3,{8}4,1,
2-5[8:1],{16}8,8,{8}2,7,4-8[8:1],{16}6,6,{8}4,5,
4-8b[8:1],{16}1,1,{8}4,2,7<4b[8:1],{16}3,3,{8}7,2,
1/8,{16}2,1,{8}3>8b[8:1],4,3/5,6,{16}7,1,8,2,
{8}1<6[8:1],{16}3,3,{8}1,4,3/5,4/2,{16}1,3,8,2,
{8}7<4b[8:1],{16}8,1,{8}7,2,3/5,6/4,{16}7,5,8,6,
{8}1<6[8:1],{16}3,3,{8}1,2,3/4,4/5,{16}5,4,5,4,
{8}6<1b[8:1],{16}3,3,{8}6,2,{16}2,8,{8}1,{16}7,5,6,4,
{8}5-1[8:1],{16}3,3,{8}5,3,{16}2,8,{8}1,{16}7,8,6,1,
{8}5<8b[8:1],{16}2,2,{8}5,3,{16}3,4,2,5,{8}1,1,
{16}8,2,6,4,{8}7h[8:1],{32}1,2,3,4,{8}8,8,{32}8/4,7/3,6/2,1p4b[32:13]`5p8[32:13],{1},{16},,,,
E
