&title=Hiiro Gekka,Kyoushou no Zetsu (nayuta 2017 ver.)
&artist=nayuta x 黒鳥
&first=0.45800003
&des=蓬莱山香蒲
&des_5=蓬莱山香蒲
&lv_5=13+
&inote_5=(150){4},,,,{1}5s1[8:3]/4z8[8:3],
{4}2b-7[8:1],{8}2,5-8[8:1],,5,1,2-5[8:1],
,2,6,7,8-5[8:1],5,{4}8,
3-6[8:1],{8}3,7-4[8:1],,7,3,2-7[8:1],
,2,6,7,8-4[8:1],1-5[8:1],8,1,
{4}7-2[8:1],{8}7,4-1[8:1],,4,,7-4[8:1],
,7,3,2,1-4[8:1],4,{4}1,
6-3[8:1],{8}6,2-5[8:1],,2,,7-2[8:1],
4-1[8:1],7,4,8,7v5[8:1]/1v3[8:1],7/1,{4}1/7,
1-5[8:1],{8}1,8-4[8:1],,8,,2,
{4}3-8[8:1],{8}3,4-7[8:1],,4,8-2-5[4:1],7,
{4}5-3-8[4:1],8-2-5[4:1],5V38[4:1],8V24[4:1],
4V68[4:1],8-3-5[4:1],5-7-2[4:1],7,
{8}8-4[8:1],3,8,1-5[8:1],6,1,7,7,
6-1[8:1],4,6,5-2[8:1],7,5,1-7-4[4:1],2,
{4}4-6-1[4:1],1-7-4[4:1],4V61[4:1],1V75[4:1],
5V31[4:1],1-6-4[4:1],4-1-7[4:1],2,
{8}2-7[8:1],3,4,5-2[8:1],6,7,8,1,
{4}2-5[8:1],{8}2/1,8-4[8:1],,8/1,,,7-2[8:1],
6,5,4-7[8:1],3,2,1,8,
{4}7-4[8:1],{8}7/8,1-5[8:1],,1/8,,,6-1[8:1],
5-2[8:1],6,5,7-4[8:1],8-3[8:1],7,8,
{4}5-1[8:1],{8}5/4,3-7[8:1],,3/2,,,{4}8-4[8:1],
{8}8/1,2-6-4[4:1],,2/1,8,7,
2/6,6-1[8:1]/2-5[8:1],6/2,2b/6b,,,{4}1b,
{8}5-7[8:1],1-5[8:1],5-3[16:1],1,{4}8-4[8:1],8,
{8}1-4[8:1],5-1[8:1],1-6-8[16:3],5,{4}2-6[8:1],2,
7V53[6:1],7-1-3[6:1],7V53[6:1],2V46[6:1],
6V82[6:1],2V46[6:1],{2}8xw4[8:1],
{8}4-2[8:1],8-4[8:1],4-6[16:1],8,{4}1-5[8:1],1,
{8}8-5[8:1],4-8[8:1],8-3[8:1],4,{4}7-3[8:1],7,
2-4-6[6:1],2-8-6[6:1],2V46[6:1],7xV53[6:1],
3V17[6:1],7xV53[6:1],{2}1xw5[8:1],
{8}6-3[8:1],1-6[8:1],6-2[8:1],1,{4}5-8[8:1],5,
{8}3-6[8:1],8-3[8:1],3-7-5[4:1],8,{4}4-1[8:1],4,
7-5-2[16:3],7-1-4[16:3],7V53[6:1],7V13[6:1],
5-7-2[16:3],2xV41[16:3],{2}1xw5[8:1],
{8}3-6[8:1],8-3[8:1],3-7[8:1],8,{4}4-1-7[16:3],4,
{8}6-3[8:1],1-6[8:1],6-2[8:1],1,{4}5-8[8:1],5,
2-4-7[16:3],2-8-5[16:3],2V46[6:1],2-7[8:1],
2-5[32:3],2w6[32:3],2b,8b/4b,
{1}1b>8[2:3],
,8<1[2:3],
,1s5z1[2:3],
,8z4[1:1],
{8},,,,E2,B7,B3,E6,
8-5[8:1],,,1x>4[8:1],,,{4}5-8[8:1],
,3x<6[8:1],{16}7-2[8:1],,,,,,,4x>1[8:1],
,8-5[8:1],,,,,,,,,{8}1x>4[8:1],{4}5-8[8:1],
{8},3x<6[8:1],,7-2[8:1],,6x>3[8:1],,,2-7[8:1],
,,4x>1[8:1],,,{4}7-2[8:1],
{8},3x<6[8:1],,,{4}2-7[8:1],6x>3[8:1],
{8}1-6[8:1],,,2x>1[8:3],{16},,,,,,,,,,,,,,,7-3[8:1]/1x>5[8:1],
,,,,,,,,{8}6bh[16:9],
5,5,{16}4,4,,3,{8}3,{16}7,7,,2,
{8}2h[16:9],1,1,{16}8,8,,7,{8}7,{16}4,4,,3,
{8}3h[16:9],4,4,{16}5,5,,6,{8}6,{16}2,2,,7,
{8}7h[16:9],8,8,{16}1,1,,2,{8}2,{16}5,5,,6,
{8}6h[16:9],5,7,{16}8,8,,1,{8}1,{16}6,6,,3,
{8}3h[16:9],4,2,{16}1,1,,8,{8}8,{16}4,4,,6,
{8}6h[16:9],5,7,{16}8,8,,1,{8}1,{16}5,5,,,{1}6>2[16:3]/2s6[16:3],
{8}5V31[4:1],6,7,{16}8,8,,7,{8}7,{16}3,3,,4,
{8}4V68[4:1],3,2,{16}1,1,,2,{8}2,{16}6,6,,5,
{8}5>1[4:1],6,7,{16}8,8,,6,{8}6,{16}3,3,,4,
{8}4<8[4:1],3,2,{16}1,1,,3,{8}3,{16}6x,6x,{8}6x,
3<7[4:1],2,1,{16}2,2,,3,{8}3-5[8:1],{16}7,7,,6,
{8}6>2[4:1],7,8,{16}7,7,,6,{8}6-4[8:1],{16}2,2,,3,
{8}3<1[8:3],2,1,{16}2,2,,3,{8}3-8[8:1],{16}7,7,,6,
{8}6>8[8:3],7,8,{16}7,7,,6,{8}6-1[8:1],{16}2x,2x,{8}2x,
{16}4b,5,4,6,4,5,4x,2h,4,5,4,6,4,5,4,2h,
4,5-8[8:1],4x,6,4,5,{8}4,{16}4,8-5[16:1],4,7,4,8x,{8}3h[16:1],
{16}5,4,5,3,5,4,5,7h,5,4,5x,3,5,4,5x,7h,
5,4-1[8:1],5,3,5,4x,{8}5,{16}5,1-4[16:1],5,2,5,1x,{8}5,
5/4,{16}3,4,{8}3,{16}5,4,{8}5b,{16}6,5,{8}6,{16}5,4,
{8}5,{16}3b,4,{8}3,{16}5,4,{8}5,{16}6,5,{8}6b,{16}5,4,
5,4,5,4,5b,4b,5b,4b,6,3,6,3,7,2,7,2,
{4}8bqq5[16:5]/1bpp4[16:5],,,1b,
{8}1-6[8:1],6-3[8:1],1-4[8:1],7,{4}1-6[8:1]*-5[8:1],1-4[8:1],
{8}1-6[8:1],6-3[8:1],1-4[8:1],7,{4}1-6[8:1]*-5[8:1],1-4-2[16:3],
1-6-8[16:3],1-3-5[6:1],1-7-5[6:1],1-4-7[24:5],
1-6-3[24:5],1-5[8:1],1w5[8:1],1,
{8}8-3[8:1],3-6[8:1],8-5[8:1],2,{4}8-4[8:1]*V24[8:1],8-5[8:1],
{8}8-3[8:1],3-6[8:1],8-5[8:1],2,{4}8-3[8:1]*-4[8:1],8-5-7[16:3],
8-3-1[6:1],8-6-4[8:1],8-2-4[8:1],8-5-2[24:5],
8-3-6[24:5],8-4[8:1],8w4[8:1],8,
{8}1-6[8:1],6-2[8:1],1-5[8:1],7,{4}1-4[8:1]*-6[8:1],1-5[8:1],
{8}1-6[8:1],6-2[8:1],1-5[8:1],7,{4}1-6[8:1]*-4[8:1],1-5-3[24:5],
1-3-7[24:5],1-5-7[24:5],1-7-3[24:5],1-5-3[24:5],
1-3-7[24:5],1-6[8:1]*-4[8:1],1w5[8:1],1,
{8}8-3[8:1],3-7[8:1],8-4[8:1],2,{4}8-5[8:1]*-3[8:1],8-4[8:1],
{8}8-3[8:1],3-7[8:1],8-4[8:1],2,{4}8-3[8:1]*-5[8:1],8-4-6[24:5],
8-6-2[24:5],8-4-2[24:5],8-2-6[24:5],8-4-6[24:5],
8-6-2[24:5],8-4-2[24:5],8bw4[8:1],8b,
{1}6b<2[4:5]/2b>6[4:5],
E
