&title=GEMINI -C-
&artist=tatsh
&first=1.58
&des_5=mai-star V.S. 玉子豆腐
&lv_5=14
&inote_5=(180){8}
2-6[8:1],,1-5[8:1]/2,,1/8h[4:1],,7,7h[4:1],,5,5h[4:1],,3h[4:1],,1,,
7-3[8:1],,8-4[8:1]/7,,8/1h[4:1],,2,2h[4:1],,4,4h[4:1],,
{16}
2,1,2,1,2,1,2,1,2,1,,,
3,,28,,37,,3,4,,6,5,,27,,,,
8,,17,,26,,6,5,,3,4,,27,,,,
4,,35,,26,,7,8,,2,1,,27,,,,
5,,46,,37,,2,1,,7,8,,
8<5[8:1],,1,,2,,3,,1b-5[8:1]/2,,,,8b/1,,,,
1>4[8:1],,8,,7,,6,,8b-4[8:1]/7,,,,1b/8,,,,
8<5[8:1],,1,,2,,3,,1b-5[8:1]/2,,,,8b/1,,,,
{8}
2,31,2,4,5b<1[8:1]/1b>5[8:1],,1b/5b,,
7,68,7,6,4b>8[8:1]/8b<4[8:1],,8bq4[8:1]/4bq8[8:1],,84,,3,24,
5q1[8:1]/1q5[8:1],,
5^2[8:1]/1^6[8:1],,5-8[8:1]/1-4[8:1],,5-2[8:1]/1-6[8:1],,5q1[8:1]/1q5[8:1],,
5^2[8:1]/1^6[8:1],,
{8}51,,6,75,
{4}8q4[8:1]/4q8[8:1],
8^5[8:1]/4^1[8:1],8/4,
{8}81,72,
{8}
3/8-4[8:1],3,3,3,3/4-7[8:1],3,3,3,3/7-2[8:1],3,3,3,3/2-6[8:1],3,3,3,
6/1-5[8:1],6,6,6,6/5-2[8:1],6,6,6,6/2-7[8:1],6,6,6,6/7-3[8:1],6,6,6,
3/8v6[8:1],3,3,3,3/6v4[8:1],3,3,3,3/4-1[8:1],3,3,3,3/1-4[8:1],3,3,,
{16}
2,,6,5,7,,3,4,2,,8,1,27,,,,
4,5,3,6,4,5,3,6,4b,5,3,6,
{8}1b,,5<8[8:1],4,3,2,
1b-3[8:1]*-7[8:1]
,,1bw5[8:1],,1b,,,,
8>4[8:1]*<4[8:1]
,,8,,4>1[8:1],5,6,7,8b-4[8:1],,
8b-2[8:1]*-6[8:1]
,,8bw4[8:1],,8b,,
1-4[8:1]*-6[8:1]
,,1,,2<6[8:1],6>2[8:1],,,
8b-4[8:1],,
8bpp3[8:3]*qq5[8:3]
,,8b,,,,
8-5[8:1]*-3[8:1]
,,8,,7>3[8:1],3<7[8:1],,,
1b-5[8:1],,
1b-3[8:1]*-7[8:1]
,,1bw5[8:1],,1b,,
{8}
1,
2h[4:1],,3h[4:1],,5h[4:1],6h[4:1],,7,6,5,4,3,2,1,8,7,
7h[4:1],,6h[4:1],,4h[4:1],3h[4:1],,2,3,4,5,6-2[8:1],,67,,
5,
6h[4:1],,7h[4:1],,1h[4:1],2h[4:1],,3,2,1,8,7,6,5,4,3,
3h[4:1],,2h[4:1],,8h[4:1],7h[4:1],,6,7,8,1,2-6[8:1],,23,,
45,36,,12,38,56,,78,1q5[8:1]/6,,5q1[8:1],,
1>3[8:1]*<6[8:1],,
{16}
,,,,1,8,2,7,4,5,3,6,1,7,2,8,3>8[4:1],5,4,6,8p4[4:1],,,,4p8[4:1],,,,8<4[4:1],,,,,,,,
{4}
8h[2:1],,1b,,6h[2:1],,3b,,7h[2:1],,1b,,1,3,2h[4:1],,4h[4:1],,6h[4:1],,8,17,2h[4:1]/6,,
4h[4:1],,3h[4:1],,7,5,6h[4:1],,5h[4:1],,3h[4:1],,1,28,37,46,
5-2[8:1]*-8[8:1]
,5,,1,28,37,,
4-7[8:1]*-1[8:1]
,4,,8,17,26,35,4-8[8:1],4,17,26,35,,8-4[1:1],,,,,,4w8[1:1],4b,,,,,
{16}
1,8,1,,36,,8,1,8,,36,,18,,,,
5,4,5,,27,,4,5,4,,27,,45,,,,
3,4,3,,16,,6,5,6,,38,,56,,,,
7,8,7,,25,,2,1,2,1,2,,47,,,,
3,4,2,,48,,
6,5,7,5,6,,2,1,3,,6,5,7,,15,,
3,4,2,4,3,,7,8,6,,1,7,1,,35,,
8,2,6,4,8,,5,4,5,,34,,34,,56,,56,,34,,42,,56,,57,,
1,7,3,5,1,,8,2,6,4,8,,18,27,36,,
8,2,6,4,8,,1,7,3,5,1,,18,27,36,,
1,5,2,6,3,,7,3,6,2,5,,27,36,45,,
8,4,7,3,6,,2,6,3,7,4,,27,36,45,,
1h[8:1]/5h[8:1],,,,1h[8:1]/5h[8:1],,,,3h[8:1]/7h[8:1],,,,3h[8:1]/7h[8:1],,,,
3,,7,,2,,6,,1,,5,,8,,4,,
3h[8:1]/7h[8:1],,,,3h[8:1]/7h[8:1],,,,5h[8:1]/1h[8:1],,,,5h[8:1]/1h[8:1],,,,
2h[8:1]/6h[8:1],,,,2h[8:1]/6h[8:1],,,,4h[8:1]/8h[8:1],,,,4h[8:1]/8h[8:1],,,,
3,,7,,2,,6,,1,,5,,8,,4,,
2h[8:1]/6h[8:1],,,,2h[8:1]/6h[8:1],,,,4h[8:1]/8h[8:1],,,,4h[8:1]/8h[8:1],,,,
3,,7,,2,,6,,1,,5,,8,,4,,
2,6,4,8,1,,7,3,5,1,8,,12,38,47,,
6,2,8,4,5,,3,7,1,5,4,,78,16,25,,
2,1,3,5,4,,7,8,6,4,5,,12,38,47,,
1,2,3,4,8,7,6,5,2,3,4,5,1,8,7,6,
7h[8:1]/3h[8:1],,,,7h[8:1]/3h[8:1],,,,1h[8:1]/5h[8:1],,,,1h[8:1]/5h[8:1],,,,
1,,5,,8,,4,,7,,3,,6,,2,,
8h[8:1]/4h[8:1],,,,8h[8:1]/4h[8:1],,,,2h[8:1]/6h[8:1],,,,2h[8:1]/6h[8:1],,,,
2,,6,,1,,5,,8,,4,,7,,3,,
4,5,3,6,4,6,3,5,4,5,3,6,45,,,,
{16}8,1,8,1,8,2,8,2,8,3,8,3,8,4,8,4,8,7,6,5,8,1,2,3,8,7,6,5,4,3,2,1,
4,8,4,8,4,7,4,7,4,6,4,6,4,5,4,5,4,3,2,1,4,5,6,7,4,3,2,1,8,7,6,5,
8,3,8,3,7,2,7,2,6,1,6,1,5,8,5,8,5,6,7,8,4,3,2,1,5,6,7,8,1,2,3,4,
1,6,1,6,2,7,2,7,3,8,3,8,4,1,4,1,4,3,2,1,5,6,7,8,4,3,2,1,8,7,6,5,
7b,3,7,3,6,2,6,2,5,1,5,1,4,8,4,8,4,5,6,7,4,3,2,1,5,6,7,8,1,2,3,4,
2,6,2,6,3,7,3,7,4,8,4,8,1,5,1,5,5,4,3,2,5,6,7,8,4,3,2,1,8,7,6,5,
8,1,7,2,8,2,7,1,8,1,7,2,18,,,,8b,3,8,3,{32}8,7,6,5,,,,,{16}1b,6,1,6,{32}1,2,3,4,,,,,
{32}7b,6,5,4,3,2,1,8,7b,6,5,4,3,2,1,8,,3b/7b,,,,,,,
{48}
1b/8b,2b/7b,3b/6b,4b/5b,,,,,,,,,
{8},,,,,,,3,4,5w1[4:1],,,,,,8,1,2w6[2:1],
{1},,,E
