&title=稜鏡軌跡
&artist=LilLin as sync|ez
&first=0
&des=Dororo
&lv_5=14+
&inote_5=(134)
{1},
{48}6h[4:6],4-6-3v2-8[4:5],,{16},,,,,,,,,,,,,,,
{16},,,,,,,,,,,,{48}2h[8:8],1q2-4v6-8b[4:7],8,{16},,,
{16},,,,,,,,,,,,,,,,
{16},,,,,,,,,,,,,,,,
{16}4x^3^2^1^8^7^6^5[2:3],,,,Ch[2:3],,,,,,,,,,,,
{16},,,,,,,,,,,,,,,,
{16}2,,3,,4,,5h[2:1]/6,,,,,,,,{24}D3,A2,D2,
{16}A1,,,,,,,,,,,,,,3,4,
{16}5,,3,,4,,5h[2:1]/6,,,,,,,,E4,E5,
{16}E6,,,,,,2,,,,,,,,,,
{16}7,,6,,5,,4h[2:1]/3,,,,,,,,{24}D7,A7,D8,
{16}A8,,,,,,,,,,,,,,6,5,
{16}4,,6,,5,,4h[2:1]/3,,,,,,,,B7,C,
{16}B2,,6,,4,,1,,,,,,,,,,
{16}3-1[8:1]/5,,3h[8:3]/5,,,,,,E7/B7/B6,,,,38,,3V15[4:1]/8,,
{16},,5-3[8:1],,,,,,E7/B7/B6,,1x,,1x,,,,
{16}2-4[8:1]/4-8[8:1],,,,2^7[8:1]/4,,,,E7/B7/B6,,,,1,,1-5-7[4:1]/5,,
{16},,8,,8-4-2[4:1],,,,E7/B7/B6,,1x,,1x,,,,
{16}6-8[8:1]/4,,6h[8:3]/4,,,,,,E3/B2/B3,,,,61,,6V84[4:1]/1,,
{16},,4-6[8:1],,,,,,E3/B2/B3,,8x,,8x,,,,
{16}7-5[8:1]/5-1[8:1],,,,7^2[8:1]/5,,,,E3/B2/B3,,,,8,,8-3-1[4:1]/4,,
{16},,4,,4-7-5[4:1],,,,E3/B2/B3,,1x,,1b,,,,
{16}3-1[8:1],4x,5x,,4,5x,6x,,A7/D8/E8/1h[4:1],,,,3,,3-1[8:1]*-7[8:1],4x,
{16}5x,,3,,,,2,,2-5[8:1]/A7/D8/E8,,,,1h[4:1]/2,,,,
{16}4-8[8:1],3x,2x,,3,2x,1x,,A7/D8/E8/2h[4:1],,,,8,,1V73[4:1],,
{16},,13,,2-6-4[4:1],,,,A7/D8/E8/2,,1x,,1x,,,,
{16}6-8[8:1],5x,4x,,5,4x,3x,,A2/D2/E2/8h[4:1],,,,6,,6-8[8:1]*-2[8:1],5x,
{16}4x,,6,,,,7,,7-4[8:1]/A2/D2/E2,,,,8h[4:1]/7,,,,
{16}5-1[8:1],6x,7x,,6,7x,8x,,A2/D2/E2/7h[4:1],,,,1,,8-3-1[4:1],,
{16},,68,,5V74[4:1],,,,5/A2/D2/E2,,8x,,8bz4[8:1]*v3[8:1],,,,
{16}8>8[1:1],,,,,,,,,,,,,,,,
{32}8>7[8:7],1,{16}2,,,,,,,,,,,1,,,,
{16}8>6[8:6],,,,,,,,,,,,7,,,,
{16}8>5[8:5]*pp5[8:5],,,,,,,,,,,,,,,,
{64}7x/E3,B3,B4,,{16},,6,6h[8:1],,5,,{64}8x/E3,B3,B4,,{16},,7,7h[8:1],,5,,
{64}2x/E7,B6,B5,,{16},,3,3h[8:1],,4,,{64}1x/E7,B6,B5,,{16},,2,2h[8:1],,4,,
{16}1bh[16:1],5h[16:1],2h[16:1],6h[16:1],3h[16:1],7h[16:1],4h[16:1],8,{32}1x/5b,6,7,8,1,2,3,4,5x/7,8,1,2,3,4,5,6,
{16}7xs3qq2^4[4:5]/3z7qq6^8b[4:5],,,,,,,,,,,,,,,,
{16},,,,,,,,,,,,
{48}8h[8:1]/3x,4,5,{16},,,{48}7h[8:1]/B2,C,B6,{16},,,{48}8h[8:1]/3x,4,5,{16},,,{48}7h[8:1]/E3,B3,B4,{16},,,
{48}8h[8:1]/3x,4,5,{16},,,{48}1h[8:1]/C,B6,A6,{16},,,{48}2h[8:1]/3x,4,5,{16},,,{48}1h[8:1]/B3,B4,E5,{16},,,
{48}8h[8:1]/3x,4,5,{16},,,{48}7h[8:1]/B2,C,B6,{16},,,{48}8h[8:1]/3x,4,5,{16},,,{48}7pp2[4:3]/E3,B3,B4,{16},,,
{16}6x^4v5^3b[2:1],,,,,,,,,,,,,,,,
{48}1h[8:1]/6x,5,4,{16},,,{48}2h[8:1]/B7,C,B3,{16},,,{48}1h[8:1]/6x,5,4,{16},,,{48}2h[8:1]/E7,B6,B5,{16},,,
{48}1h[8:1]/6x,5,4,{16},,,{48}8h[8:1]/C,B3,A3,{16},,,{48}7h[8:1]/6x,5,4,{16},,,{48}8h[8:1]/B6,B5,E5,{16},,,
{48}1h[8:1]/6x,5,4,{16},,,{48}2h[8:1]/B7,C,B3,{16},,,{48}1h[8:1]/6x,5,4,{16},,,{48}2h[8:1]/E7,B6,B5,{16},,,
{48}1bh[8:1]/6x,5,4,{16},,,{48}7bh[8:1]/2x,3,4,{16},,,{48}1bh[8:1]/8xw4[8:1],7,6,{16},,,{48}E1/8xb,Cf,E5,{16},,,
{16}2b/7b,,,,1,6,6,4,8-4[8:1],3,3,5,8,,6,,
{16}5^8[8:1]/8,,3,3,5^2[8:1]*-2[8:1],,4,,5,,,,{32}7,6,5,4,3,2,1,8,
{16}7b/2bq7[8:1],,,,{64}A6/2x,D6,A5,D5,A4,D4,A3,,{16},,8x-2v3b[8:1]*-3b[8:1],7,1,7,8xb^5[8:1],,,,
{32}1,2,3,4,{16},,{24}1^4[8:1],2x,1x,2x,1x,2x,{32}8x,7,6,5,{16},,{24}8,7x,8x,7x,8x,7x,
{32}1x,2,3,4,1x,2,3,4,7x,6,5,4,7x,6,5,4,{48}A8,D1f,A1,{16},,,{24}3x,4,3x,4,3x,4,
{24}3x,,2,1x,,3,4x-6-3-7[8:3],,2,1x,,3,4x,,,,,,,,,,,,
{24}6x/5,,,7,8x,,6x,5,6x,,7/8x,,6x/5,,7x,8,6x,5,6x,,7/8xqq4[24:10],,6x/5,,
{24},1b,,,,,,,,,,,{16},,4h[16:1]/5h[16:1],,{24}36,2,1,8,7,6,
{16}1b/E5f/A4/A5/D5,,,,8,3,3,5,1-5[8:1],6,6,4,1,,3,,
{16}4^1[8:1]/1,,6,6,4-6[8:1],,8,,47,,8,8,{32}2,3,4,5,6,7,8,1,
{16}2b/7bp2[8:1],,,,{64}A3/7x,D4,A4,D5,A5,D6,A6,,{16},,1xV75[8:1]/5xV31[8:1],,,,15,,,,
{24}8b/4,1,2,{16}36,,{24}8x/4,7,6,{16}52,,{24}8b/4,1,2,{16}36,,{24}8x/4pp5[8:1]*-1[8:1],7,6,{16}52,,
{16}B4f/E4/E5,,,,1,4,4,3,8>4[8:1],5,5,6,8,,7,,
{16}8bh[8:1]/5h[8:1],,,1bh[8:1]/4h[8:1],,,2bh[16:1]/3h[16:1],,{48}1-5[8:1]/4,8x,7x,{16}6x,,2,12,,,,
{16}3b/7b,,65,,8-3[8:1],4,4,,8-6[8:1],5,,5,8-3[8:1],4,,4,
{16}8bz4[8:1]*v7-5[8:1],,,,8b,,,,34,34,,18,,65,65,,
{16}4b/7b,,26,,8,5,5,6,1<5[8:1],4,4,3,1,,2,,
{16}1-6[8:1]/4,,6,,5h[8:1]/1,,,,8-3[8:1]/5,,3,,4h[8:1]/8,,,,
{12}2x/4,3x/4,2x,5/7b,6b/5,7b,{16}2-6[8:1],6,3,5,26,,7,,
{24}1b/5,8,7,{16}63,,{24}1x/5,2,3,{16}47,,{24}1b/5,8,7,{16}63,,{24}1x/5V38[8:1]*-7[8:1],2,3,{16}47,,
{16}A5f/E6/E5,,,,1,4,4,3,8>4[8:1],5,5,6,8,,7,,
{16}8bh[8:1]/5h[8:1],,,1bh[8:1]/4h[8:1],,,2bh[16:1]/3h[16:1],,{48}1/4-8[8:1],8x,7x,{16}6x,,3,34,,,,
{16}1b/7b,,,,,,,,E4h[1:1]/E5,,,,,,,,
{16}E8h[2:1]/E1,,,,,,,,B2/B6/A2/A6/Cf,,,,,,,,
{16}2b,4,3,5,4,6,5,7,1b,1,{32}7,6,5,,{16}2b,2,{32}8,7,6,,
{16}2b,4,3,5,4,6,5,7,2b,2,{32}8,7,6,,{16}3b,3,{32}1,8,7,,
{16}2b,4,3,5h[48:9],{24}1,8,7,6,5,4,{16}7b,5,6,4h[48:9],{24}8,1,2,3,4,5,
{16}2b,4,3,5,4,6,3,7,2b,8,{24}3,4,2,7,5,6,4,5,4,
{16}7b,5,6,4,5,3,4,2,8b,8,{32}2,3,4,,{16}7b,7,{32}1,2,3,,
{16}7b,5,6,4,{12}8b,5b,2b,{16}7b,7,{32}1,2,3,,{16}6b,6,{32}8,1,2,,
{16}7b,5,6,4h[48:9],{24}7,8,1,8,7,6,{16}2b,4,3,5h[48:9],{24}2,1,8,1,2,3,
{16}4b/5b,,,,3-8[8:1]/6-1[8:1],36,36,36,A7/B7/C/B2/A2/D8/E8/B8/B1/E2/D2/A8/D1/E1f/A1,,,,{24}3,4,2,6,5,7,
{16}1b,6,4,8,3,5,1,1,{32}7b,6,5,4,3,2,1,8,4,3,2,1,8,7,6,5,
{16}8b,3,5,1,6,4,8,8,{32}2b,3,4,5,6,7,8,1,5,6,7,8,1,2,3,4,
{24}1b,7,1,8,1,7,2b,6,2,8,2,6,3b,5,3,8,3,5,2b,6,2,8,2,6,
{32}1xb,2,3,4,1xb,8,7,6,8xb,1,2,3,8xb,7,6,5,2b,4,2b,4,2b,4,2b,4,1b-5b[8:1],5h[32:1],1b,5h[32:1],1bqq6[16:26],5h[32:1],1b,5h[32:1],
{16}1bpp4[16:24],,,,,,,,,,,,,,,,
{16},,,,,,,,,,,,,,,,
{16}E4,,,,E6,,,,,,Ch[8:3],,,,,,
{16},,,,,,,,,,,,,,,,
