&title=セロトニン (Serotonin)
&artist=U1 overground
&first=0.15
&des=Zhong over ELECTRO
&des_5=Zhong over ELECTRO
&lv_5=14
&inote_5=
(150){4},,,,4/7h[16:3],
5/7h[16:3],4/7h[16:3],7h[8:1]/5>8[4:3],
{16}8,{8},{16}7,{8},6h[4:1],{4},{8}5,1,
{4}5/2h[16:3],4/2h[16:3],5/2h[16:3],2h[8:1]/4<1[4:3],
{16}1,{8},{16}2,{8},3,{4}4h[8:1],4h[8:1],
{8}6/3,3,6/2,2,6/1-5[8:1],1,{4}7h[8:1],
{8}3/6,6,3/7,7,3/8-4[8:1],8,{4}2h[8:1],
{16}1,2,8,3,7,4,6,5,3,4,2,5,1,6,8,7,
6/1,{8},{16}6/2,{8}6/2,4h[4:1]/8h[4:1],{4},1<6[8:1]/5>2[8:1],
5b/1bp2[4:1],{8}1/6,{16}5,5,{8}1q5[8:1],{16}8,8,{4}1,
{16}6,4,6,4,5,3,5,3,{4}7h[4:1],{24}3x,2x,1x,8x,7x,6x,
{8}5x-8[8:1],3h[8:1],5,{16}2,2,{8}8-4[8:1],1-3[8:1],8,1,
{16}7,7,4,4,6,6,3,3,{8}5-2[8:1],2-6[8:1],1,1,
8>3[8:1],7,8-4[8:1],5,8-2[8:1],6,8,4,
5<8[8:1],{16}4,4,{8}5-1[8:1],{16}3,3,{8}5-7[8:1],{16}2,2,{8}5,{16}1,1,
8,2,7,1,6,2,7,3,8,4,1,5,8,3,7,2,
{8}6-1[8:1],1-7[8:1],6,2,3,4-8[8:1],{16}5,5,{8}4,
6p2[8:1],2q6[8:1],6,{16}1,1h[16:1],{8},{16}8,2,7,1,6,3,
{8}7-4[8:1],2,7,{16}1,1h[16:1],{8}5-8[8:1],2-5[8:1],5,2,
1<6[8:1],6>3[8:1],3,{16}2,2,{8}7x-3[8:1],1,{4}1h[8:1],
{16}6,6,1,1,7,7,2,2,{8}8-4[8:1],3-1[8:1],8,3,
5<8[8:1],2-8-4[4:1],5,2,,{16}5,3,6,4,7,2,
{8}8<5[8:1],{16}1,1,{8}8-4[8:1],{16}2,2,{8}8-6[8:1],{16}3,3,{8}8,{16}4,4,
{2}5bxh[8:1]/3bx-8[8:1]*-6[8:1],{8}7-4[8:1],4v3[8:1],7,3,
{24}2,1,8,7,6,5,1,8,7,6,5,4,8,7,6,5,4,3,7,6,5,4,3,2,
{4}1-5[8:1],1b/5b,{8}7-3[8:1],2-6[8:1],7,2-8-4[4:1],
{2}7h[16:3],{8}6>3[8:1],3-7[8:1],{4}7>2[8:1],
{24}2x,3x,4x,5x,6x,7x,{8}8x-4[8:1],4,8>3[8:1],6,{4}6xh[8:1],
7h[16:3],1,{24}2,4,3,4,{12},{24}7,5,6,5,{12},{8}7-2[8:1],
3-6[8:1],7<4[8:1],3>8[8:1],7,3,{4}7,
{8}2-7[8:1],6-3[8:1],2>5[8:1],6<1[8:1],2,6,2,{16}6,6,
3,3,8,8,1,1,6,6,2,2,5,5,4,4,7,7,
{24}3,4,5,6,7,8,1,2,3,4/5,6,7,8,1,2,3,4,5,{16}2/6-3[8:1],2,{8}2,
{4}6b,{16}1,8,3,6,2,1,{8}3,{16}7,8,{8}6,
{16}4,5,4,5,{24}4,3,2,5,6,7,{16}1,8,1,8,{24}1,2,3,8,7,6,
{16}3,5,4,6,2,8,1,7,{24}2,3,4,7,6,5,3,2,1,6,7,8,
{16}3,6,1,8,{24}2,3,4,7,6,5,,2,{48},7,{24},{48}4,{24},{48}5,{24}3,2,1,6,7,8,
{16}3,5,4,6,5,7,4,6,3,5,2,4,1,5,2,6,
3,5,{8}4h[8:1],{24}8,7,6,3,2,1,{16}6,4,{8}5h[8:1],{24}1,2,3,6,7,8,
{16}4,6,5,7,4,8,3,1,{24}8x/2h[8:1],7,{12}6,,{24}1x/5h[8:1],2,{6}3,
{24}6xh,7,8,2xh,3,4,1xh,8,7,5xh,4,3,{32}8bxh/2bxh,E8/E3,E7/E4,E6/E5,{8}C,{4}1bx-6b[8:1]*-4b[8:1],
,{8}3,3,{4}2>5[8:1],2/1h[8:1],
{16}8,6,7,5,{8}6-8[8:1],{16}4,4,{4}6-3[8:1],2h[8:1],
{8}8,8s4[4:1],,4z8b[4:1],C,A4,C,A8,
3-8[8:1],4,5-2[8:1],6,{4}7h[8:1],{16}1,1,8,8,
{8}3v6[8:1]/6v3[8:1],5/4,{4}6/3>6[4:1],6x<3b[4:1],5h[8:1],
{16}7,7,1,1,{4}8h[8:1],{16}2,6/3xh[16:3],{8},5p7[4:1],6,
{4}7p1[4:1],8h[8:1],{12}7,6,6,2,3,3,
{8}5-1[8:1],4-8[8:1],5,4,7,{16}2,2,8,1,7,2,
6,6,4,4,{8}5h[8:1],{16}3,3,6,4,{8}6,{16}2,5,3,4,
2,5,2,5,3,4,2,2,{8},5/7,{16}6,4,7,3,
6,2,7,1,8,2,7,7,,3,{8}3,{16}5,5,{8},{32}1,
2,{16}3,{32}8,7,{16}6,2,7,4,5,{32}3,2,{16}1,{32}6,7,{16}8,2,7,1,8,
3,3,5,5,{8}4h[8:1],{16}6,6,3,5,{8}3,{16}7,4,6,5,
7,4,7,4,6,5,7,7,{8},4/2,{16}3,5,2,6,
3,7,2,8,1,7,2,6,3,5,4,6,3,7,2,8,
{32}1/7h[4:1],2,{16}3,,{32}E3,E4,{8}E5,{16}8,8,{8}1-5[8:1],7,{4}1b/8h[8:1],
{8}3/6h[16:3],3,1/6h[16:3],1,2/6h[16:3],2,{4}6h[8:1]/8x>5[4:3],
{16}5,{8},{16}6,{8},7h[4:1],{4},{8}8,4,
6/3h[16:3],6,8/3h[16:3],8,7/3h[16:3],7,{4}3h[8:1]/1x<4[4:3],
{16}4,{8},{16}3,{8},2,{4}2,{16}1,1,8,8,
{8}7/2,2,6/3,3,{4}5h[8:1]/4q8[8:1],4/1h[8:1],
{8}2/7,7,3/6,6,{4}4h[8:1]/5p1[8:1],{24}5/8x,E8,B7,B6,{12},{16}5,
6,4,7,3,8,2,1,7,8,6,1,5,2,4,3,
2/5,{8},{16}2/6,{8}2/6,8/4,{16}7,1,6,2,5,3,6,4,
7,5,7,2,4,2,6,6,,3,{8}3,{16}5,6,7,8,
2,3,4,5,1,8,7,6,{8}3,4/5,6,5/4,
{16}3,1,2,8,{8},8/2h[8:1],{16},1/7h[8:1],{8},{16}1/5h[8:1],2,3,4,
6,7,8,1,5,4,3,2,7,6,3,4,6,5,2,3,
7,5,6,4,{8},4/6h[8:1],{16},5/3h[8:1],{8},{16}5/1h[8:1],6,7,8,
2,3,4,5,1,8,7,6,{8}2,4/5,7,5/4,
{16}3,4,2,2,6,5,7,7,{24}2,3,4,5/1,8,7,6/2,3,4,5/1,8,7,
{16}3/6,3,8,8,2,2,7,7,{32}1,2,3,4,8,7,6,5,1,2,3,4,5,6,7,8,
{1}1/5bq3-6-1[4:7]*p7-4-1[4:7],
E
