&title=遥か彼方
&artist=ASIAN KUNG-FU GENERATION
&first=-0.06
&des=君じゃないなら意味は無いのさ
&lv_5=13+
&inote_5=(175)
{4},,,,,,,,,,,
3b/6bh[4:1],5,{8}7/5-2[8:1],7,7,,
{16}3,4,{8}3,5,,2/4<7[8:1],2,2,,
{4}3/6h[4:1],5,{8}7/5-8[8:1],7,7,,
{16}2,1,{8}2,8,{24}2x,3x,4x,{8}5x-1[8:1]/7x-4[8:1],7x/5x,,,
{4}2bh[8:3]/6b,{8}B3/E4,,7h[8:3]/1,,B6/E6,,1,,4-1-3[16:5],5,6,,,,
{4}7h[8:3]/2,{8}B8/E8,,3h[8:3]/6,,B1/E2,,5,,4-1[8:1],,5-8[8:1],,2-6[8:1],,
1xb/2xb,,7h[8:1]/3h[8:1],,37,6,6V47[4:1],,
2,1,1-4-2[4:1],,6,7,7,,
2<7[8:1],,6-3[8:1]/2,,6/1<6[8:1],,5-2[8:1]/1,,
5/8-4[8:1]*<6[8:1],,8,,{16}A1,A2,A3,A4,A8,A7,A6,A5,
{8}1,2,3/C,,17,2,3/C,,
1>4[32:7]/8,,4q5[8:3],5,6,,,,
8,7,6/C,,82,7,6/C,,
4<6[8:1],,43,,{16}2,1,2,1,2-6[8:1]*-4[8:1],,{8},
{8}2b,,8h[8:1]/3h[8:1],,83,7,6V48[4:1],,
3,2,1-5-3[4:1],,5,6,7,,
{16}3,4,3,,6,5,6,,2,1,2,,7,8,7,,
2,4,3,,7,5,6,,2xh[8:1],,1,8,7,,1,2,
{8}3-6[8:1]/4,,7-2[8:1],,3-6[8:1],,7-2[8:1],,
5pp8[32:17],,5xV38[32:9]/4x,,,,,,
6-3[8:1],,2-7[8:1],,6-3[8:1],,2-7[8:1],,
4qq1[32:17],,4xV61[32:9]/5x,,,,,,
8-5[8:1],,4-1[8:1],,8-5[8:1],,4-1[8:1],,
7-3[8:1],,7V14[32:9]*V52[32:9]/3,,,,,,
{16}B2,B6,B4,B8,B3,B7,B1,B5,E3/B2,E7/B6,E5/B4,E1/B8,{8}Cf,,
,,8xbh[4:1],,{16}5,6,4,5,{8}2h[4:1],,8<5[8:1],,
8>3[8:1],,4<7[8:1],,4>1[8:1],,8-5[8:1]*-6[8:1],,
8,,3-1[8:1]/4-1[8:1],,34,,
5<8[8:1],,5>2[8:1],,1<6[8:1],,1>4[8:1],,5-1[8:1]*-7[8:1],,
5,,2-4[8:1]/8-4[8:1],,28,,
1b/6,2,5,8b/3,7,4,2b/6,1,
4,7b/3,8,5,1xb<6[8:1]*>4[8:1],,1b,,
{16}2b/8,,3,4,3,,7b/1,,6,5,6,,2b/1,,3,4,3,
,7b/8,,6,5,6,,{8}1xb-5b[8:1]/8x,36,1b>8[8:20]/8,,
1b,,,,,,,,
,,,,,,,,
,,,,,,,,
2xh,2xh,2xh,2xh,{16}5,4,5,4,{8}36,,
{24}1x-5b[8:1],2x,3x,{8}6-8[8:1],7,,{24}1x-5b[8:1],2x,3x,{8}6-4[8:1],7,,
{24}1x-5b[8:1],2x,3x,{8}6-2[8:1],7,,1b,{16}5,4,6,,{8}2,
{24}8x-4b[8:1],7x,6x,{8}3-1[8:1],2,,{24}8x-4b[8:1],7x,6x,{8}3-5[8:1],2,,
{24}8x-4b[8:1],7x,6x,{8}3-7[8:1],2,,8b,5,6h[8:1]/3,4,
7-4b[8:1],5,{32}3x,2x,1x,8x,{8},2,4,3h[8:1]/6,5,
2-5b[8:1],4,{32}6x,7x,8x,1x,{8},7,5,8,8,
{16}2b/6b,,3,4,2,4,3,,1b/7b,,6,5,7,5,6,,
1b/8b,,2,2,8,7,6,5,3,2,1,8,{8}Cf,,
2b/7b,,{16}4,6,4,1,4,6,4,1,4,6,4,1,4,6,3,6,2,6,1,6,8b,,,,
2x-4[8:1]/6x-4[8:1],,1x/7x,,2x/6x,,,,5,3,5,8,5,3,5,8,5,3,5,8,5,3,6,3,7,3,8,3,1b,,4x,,
7xb,7,8x,6,2x,8,4,6,{32}1b,2,3,4,5,6,7,8,{16}1xb/5xb,,,,
3xb,3,4x,2,7x,8,5,4,{32}7b,6,5,4,2b,3,4,5,{8}8,37,1b/5b,,
(167)
{48}2b,3xb,4xb,5xb,6xb,7xb,8xb,1xb,2xb,3xb,4xb,5xb,6xb,7xb,8xb,1xb,2xb,3xb,4xb,5xb,6xb,7xb,8xb,1xb,
{6}2xb/Cf,,3x/6x,3xh[8:1]/6xbh[8:1],4xbh[8:1]/8h[8:1],5h[8:1]/7xbh[8:1],1xbh[8:1]/4h[8:1],2h[8:1]/6xbh[8:1],8-5b[16:1]/4xb-1b[16:1],
(115)
{32}4b/8bqq3[8:7]/B7f/B3,C,,,{1},{8},4,4>1[4:1],,,,,8,8<5[4:1],,,,
{16},,3,4,{8}1<6[12:1],2h[8:1],1,1V75[8:1],3h[8:1],1,4<7[12:1],3h[8:1],4,4V68[12:1],2h[8:1],4,{48}1b,B1f,C,B5,A5,,E
