&title=Banbard's summer
&artist=BlackY
&first=0.5
&des=AClrt_
&lv_5=14
&inote_5=(155)
{8},,,,,,,,
{16}
3/6h[16:3],,,4,,6,,4,,,3,,5,,5,,
4h[16:3],,,6,,4,,5,,,4,,3,,2,,
4h[16:3],,,3,,5,,4,,,6,,4,,5,,
3h[16:3],,,4,,3,,5,,,6,,2,,7,,
{8}3>6[8:15],,,,,,,3,4,{16}5h[16:1],,,4,,3,,,4,,,,2h[2:1],,,,,,,,
5<1[4:1],,,,1qq6[4:2],,,,,,,,,,,,,,,1,,,26,,7,,
4/6h[16:3],,,5,6-1[8:1],,3,,4-1[8:1],,,,8,,,,
7h[16:3],,,2,7-4[8:1],,3,,2-5[8:1],,,,5,,,,
6h[16:3],,,5,6-1[8:1],,3,,4qq1[3:1],,,,8,,,,
7h[16:3],,,2,7-4[8:1],,3,,2q5[4:1],,,,5,,,,6h[16:3],,,5,6,,6,,46,,6,,36,,3,,
34,,3,5,3,,3,,36,,3,,37,,7,,72,,1,8,27,,8,1,27,,27,,36,,36,,
4,5,3,6,2,7,1,8,2,7,1,8,3,6,1,8,2b/7,,,
2,2h[4:1]/4,,5,,4,2,5,3,6,4,7,,7/5,,,6,6h[4:1]/4,,5,,4,6,3,5,2,4,1,,2/7,,,
8,8h[4:1]/3,,2,,1,7,2,6,3,5,4,,3/6,,,3,3h[4:1]/5,,6,,6,3,7,2,8,1,7,,2/6,,,
2,2h[4:1]/4,,5,,4,2,5,3,6,4,7,,7/5,,,6,6h[4:1]/4,,5,,4,6,3,5,2,4,1,,2/7,,,
8,8h[4:1]/3,,2,,1,7,2,6,3,5,4,,3/6,,,3,3h[4:1]/5,,6,,6-3[16:1],,,1,,,7,,
2/6b,,3,6,,6,,2,,7,3,6,2,,18,,
8/1,,2,7,,7,,3,,6,2,7,3,,45,,
3/6,,2,7,1,8,,8,2,7,3,6,4,,46,,3/7,,2,6,1,5,,5,2,6,3,7,4,,48,,
5>2[8:1]/1,,,8,5,,7,,6/1,,,5,2,,27,,3/8-5[8:1],,,4,8,,3,,
2-5[8:1]/6-1[8:1],,,,2/6,,,,4/8,,4,,47,,4,,6,6,3,3,5,5,2,2,37,73,,1/6,,38,,
2/7,,,
{32}2/6,3,4,5,6,7,8,1,2,,,,
{16}7b,4,5,4,6,3,4,3,5,2,1,2,1,3,8,
{32}7,6,
{16}5,2,4,3,5,4,7,5,6,8,7,8,7,1,6,
{32}2,3,
{16}4,6,5,7,4,5,3,4,2,1,2,1,3,8,4,
{32}7,6,
{16}5,2,4,3,7,5,6,3,4,3,6,5,6,3,4,2,6,
1,8,1,7,2,1,2,8,3,4,2,5,1,1,,
7,7,1,8,2,7,8,7,1,6,5,7,4,8,8,,
2,2,8,1,7,2,1,2,8,3,4,2,5,1,1,,
6,1,7,2,8,3,1,2,8,1,7,8,6,,
1/5,,3-6[8:1]/7-2[8:1],,,,3/7,,,,4/8,,1pp3[8:1]/5pp7[8:1],,,,,,,,,,
2v5[16:1]/6v1[16:1],,1^6[16:1]/5^2[16:1],,,,,,,,,,
1/5,,2,,3p6[8:1]/7^2[8:1],,2^7[8:1]/6q3[8:1],,,,,,,,,,
2/5,,3,,47,,6,,2,5,2,4,3,5,4,,46,,6,,68,,6,,1,7,2,8,3,1,4,,3/8,,3,,3/5,,5,,
1,6,2,7,3,8,4,,4/7,,6,,25,,3,,7,4,7,5,7,6,7,8,6,1,5,2,4,3,5,4,
6,7,8,14,3,2,1/6,,25,,3,4,
25,1,6,8,7,1,8,2,1,3,8,,3/8,7,6,5,14,2,3,4,5/7,6,5,43,,3,1,,
28,3,7,2,8,3,7,2,8,1,7,2,6,1,7,,26,,3,5,4,,
4,6,3,7,2,8,3,7,4,6,3,2,1,8,47,5,6,7,84,,2,1,2,,7,8,
{32}6,1,,,
{16}5,2,5,,3,6,4,,6,3,5,,3,,34,,3,4,2,4,3,5,4,6,5,7,5,6,4,5,36,,
2,7,1-3[8:1],8,,8-4[8:1],1,,,8/4qq1[8:3],,,6,,5qq8[8:3],,,,,,,,1w5[8:1],2,,1,,,,,
3/7qq4[3:1],,,2,7,,,1qq5[16:5],2,,1,,5w1[8:1],,,,,,,,
3/7,,4,6,5,,5,3,4,,2,1,3,8,4,7,8,6,1,5,2,4,3,5,4,6,5,7,4/8,,3,4,2,2,,
8,1,,1,7,,7,5,6,45,,3,4,2,,8,1,7,,4,5,2h[8:1],,4h[8:1],,5,,5,,57,,7,,
1,1,3,3,5,5,7,7,1w5[4:1],,,,,,,,,,,,3-6[8:1]/7-2[8:1],,,,
{8}3<2[8:14]/7,,,,,,,,4,,,,3,,,,3>5[4:7],,,,,,,,2,,,,3,,,,4<3[4:7],,,,,,,,
,,,,6,,8,,7h[1:1],,,,,,,,4>8[4:2],,,7,,,6,,
5V71[2:1]/1,,1,,2,,3,,4V28[2:1],,8,,7,,6,,
{16}5<1[2:1]/1h[16:3],,,5,1,,1,,2,,,,3,,,,
4>8[2:1]/8h[16:3],,,4,8,,8,,7,,,,6,,,,5V73[2:1],,,1,5,,2,,2h[4:1],,,,,,4,,
2-4[8:1],,,,2/1-5[8:1],,,,1/8-6[8:1],,,,8/4q5[1:1],,,,4/5,,,,,,,,,,,,
5q1[2:1]*p1[2:1],,,,,,,,,,,,,,,,2/8b,,,,
3b/7,,4,6,5>2[8:1],,5,,8,7,6,5,1-5[8:1],,2,,1/8V64[4:1],,,,8/4q6[3:1],,,,
3,,2,,1V37[4:1],,,,1/7V51[8:3],,,,8,,1^4[4:1]*q5[4:1],,,,,,,,,,
6,,7,,8/4-7[8:1],,1,,4/1-6[8:1],,1-4[8:1],,,,,,
8,,7,5,6,,4,5,,3,4,2,5pp3[2:1],,5,,3-8[8:1],,,,3,,,,
1,,4h[8:1],,1,,5h[8:1],,1pp6[8:3],,5,,,6,,,7,,,8,5,,41,,
8qq3[8:3],,4,,,3,,,2,,,1,4,,58,,1/6b,2,3,4,58,,7,1,6,4,5,3,1,,2,8,
{12}3,5,1,7,1,5,
{16}3,,3,8,2,,7,,16,2,34,5,6,7,1,,1/7,2,3,4,5,6,8,,5/8,7,6,5,41,2,3,4,
5/8,1,2,3,41,2,3,4,57,,6,5,6,,45,,4/5-1[8:1],,,3,5,,4,,4-1[8:1]/8-4[8:1],,,,
4/8,,,,15,2,3,4,51,8,7,6,51,,2,4,3,5,4,6,5,7,4,5,2,3,1,8,
6,6,,4,,21,,4/7,,,
{32}6,5,4,3,2,1,8,7,6,,,,
{1}1b,,,,,,E
