&title=[?]TU KUAI
&artist=LU BEN WEI NIU BI
&first=0
&des=17张牌你能秒我
&lv_6=土
&lv_7=块
&inote_6=(140){4},,,,,{32},
{16},,,4,5,4,6,4,7,4,,,{32},{16}
4,5,{32},{16}2b<7[1024#4:1]*-6[1024#4:1]/3b-6[1024#4:1],,,,,{32}5,,,3,,6bqq5[1024#4:1]*<1[1024#4:1],,,,,,7bV14[1024#4:1],,,,,,,8bs4[1024#4:1]*z4[1024#4:1],,{16},,,,,,{32},,,,(120){16},5,4,5,4,5,,,,,,,,{32},
(140){16}
6,2,,{32},{16}2,5,,{32},{16}5,4,6,3,7,2,8,(120)1,8,1,8,1,,,,,,,{48},{32}1b-7[1024#4:1]/8b-4[1024#4:1],,,,,1bv4[1024#4:1]/8b-5[1024#4:1],,{16},,,,,,,,,,,,,,,,,
5,4,5,3,5,2,{12}5,{12}36,27,1-5[32:1]/8-4[32:1],45,1b/8b,,{16},
{16}56,45,34,2b<7[1024#4:1]*-6[1024#4:1]/3b-6[1024#4:1],,,,{32},{12}26,48,
{16},,8bz4[1024#4:1]/6b>4[1024#4:1],,{32},{16},8bV25[1024#1:1],,,,{12}45,{16}
1bp6[1024#4:1]/2bp6[1024#4:1],,,,{32},{16}6bqq5[1024#4:1]*<1[1024#4:1],,
,,4,,5,,2b<7[1024#4:1]*-6[1024#4:1]/3b-6[1024#4:1],,,,,,,,,,{32},{16}4h[4:1]/5h[4:1],,,,
,,,,,,,,,,,,,,,,,,,,
(140)7,8,7,8,7,,,,,,,{32},,,{16}2,1,2,1,2,1,,,,
,,,,3,4,{32}3h[32:9],,,,,,,,,{16}4,2,4,,,{32},{16},18,27,36,45,,,,
,,,,{32},(120){16},4,5,3,6,2,
{128}8b-5[1024#1:2]/7b-4[1024#1:2],1b-4[1024#1:2]*v3[1024#1:2],
{16},,,,,,,
{12}1b-5[1024#1:1],5b-2[1024#1:1],2b-7[1024#1:1],7b-4[1024#1:1],4b-1[1024#1:1],,
{16},,1h[8:1]/2h[8:1],,,{128},,,,8b-5[1024#1:2]/7b-4[1024#1:2],1b-4[1024#1:2]*v3[1024#1:2],{16},,,,,,,,7h[8:1]/8h[8:1],,
,,,{32},,,(140){16}3,4,5h[32:10],,,,{32},,{16}3,4,5,6,,,,
,,,,(160)5b,,6b,,7b,,8b,,1b/8b,,2b/8b,,
,,,,,,,,,,,,,,,,,,(140)4bqq4[1024#1:2]/5bpp5[1024#1:2],,,,,,,,,,,,,
2bV48[1024#1:1]/6bV84[1024#1:1],,,,5bqq5[1024#1:2]*-8[1024#1:2],,,,
,,,{32},{16},1,5,2,6,3,7,{32},{16}1bv4[1024#2:1]/8b-5[1024#2:1],,,,,1b-4[1024#1:1]/6b>4[1024#1:1],,,{32},{16},2,3,4h[16:3],,{48},,,,,,,,,,1b,2,3,4,5,6,7,8,1b,,,,
{16},,,,(120)4,5,4,5,(140)4,,,,,,,,
,,,,,,,,{32},,{16},5<1[4:1]*p7[4:1],,,,5b,,,,,,,,{32},{16},1bs5[1024#1:1],,5bqq5[1024#1:1]*-8[1024#1:1],,,,,(120)4,6,4,7,4,8,,,,{32},{16},1bp4[1024#1:1]/8b-5[1024#1:1],,,,,,,,,
3,4,5,6,7bz3[1024#1:2],,,6,{32},{16}6,,,,,,,,,,,,,,,,
12,1/2-5[33.111#32:1],{48},,,,{16}78,7-4[21.538#48:1]/8,,,,,,,,,,,1/2b,,,,,,,,,,{48},{16},7b/8h[4:1],,,,,7h[32:11],{32},{16},4,3,2,1,,2-6[62.222#16:1],,,,,,,,2b/8-4[9.5#384:1],,,,,,,,,,,,,,,,,,,,,,,,,,,,,,,,,,,,,,,{48},,,,{12}4h[12:1],5h[6:1],{16},{48},{16},,4h[8:1],,3h[8:1],,(140),8-5[55.667#32:1],,2,,,,,,4,,8b/4,,3h[8:1],,,,2h[8:1],,{16},,1w5[8:1],,,,1b,,,,,,,,,,{32},
{1},,
{48}2,3,4,5,6,7,{12},5,6,7,8,{8}18,28,,,,,,,,
{16},,,,,,3,4,3,{48},{16},7,8,7,8,7,,,,,
,,,,,,,,,,,,,,,,,,,,,,,,,,,,,,,,
{12}3,7,2,6,1,5,,1,,,,4h[4:1],,8,5h[4:1],,1,2,3,(115)45,36,27,(140)18,,,
,,2,,,,,,,,,,,,,6b-2[1024#1:2]/8bV24[1024#1:2],,,,,,,,,,5bpp5[1024#1:3]*q2[1024#1:3]*>2[1024#1:3]
,,,,,,,,,,
18,,2,3,4,5,6,7,,,{32},,,,{12}15,15,,37,37,,
,,,{48}1b,2,3,4,5b,6,7,8,1b,2,3,4,5b,6,7,8,{16}1b,,,,,,,,
,,,,,,,,,,,,,,,,,,,,,{12},7-5[8:1]/8V24[8:1],25,25,7b/8b,,{32},,{16},26,37,{48},8b/1b,2,3,4,5,6,7,8,{12}1b/5b,,,,,,7b>1[1024#1:1],,1bv4[1024#1:1],,5b,,,,,,{24},
{12}1,3,5,7,{24},,{12},7b-5[1024#1:1]/8bV24[1024#1:1],,,,
{128}8b-5[1024#2:1],7bV14[1024#2:1]*V14[1024#2:1],{12},,,7bV53[1024#2:1],,5bqq5[1024#2:1]*-8[1024#2:1],,2bV48[1024#1:1]/7bV51[1024#1:1],,,{32},,{16},36,,{96},,,,1b,2b/8b,3b/7b,4b/6b,5h[96:20],,,,,,,,,,,,,,,,,,,,,4b/6b,3b/7b,2b/8b,{12}1-5[105#8:1],,,,
1b/8b,7,6,2,(110)1>1[68#8:1]/8,3-6[85.33#12:1]/6,3/6,18,,1b,,,,,,
{128}
,,,,,,,,,7b-3[4:6]/1bp5[4:6]/2bv4[4:6],{16},,,,,,,,,,,,,,,,,,,,,,,,,,
,,,{32},7-1[10#512:1],,,,,,,,,,,,{16}8-5[11.6#512:1],,,,,,8V62[13.8#512:1],,,8V64[15.2#512:1],,,1v4[16.9#512:1],,,,,,,,,,,,{16},,,,,,,,,,,,,,8b,,,,,,,,,,,,,,,,,,,,,
,,,,,,,,,,,,,,,,,,,,,,,,,,,
,,,,,,,,,,,,,,,,,,,,,,,,,,,
&inote_7=(140){4},,,,,{32},
{16},,,2,4,3,7,5,6,1x/8x,,,{32},{16}
3h[16:1],,{32},{48}A7,D8,A8,E1,B8,B7,E7,A6,E6,B5,A1,B1,C,B4,A4,D4,A3,D3,A2,D2,A1h[48:27],{32},5xbh[32:3],,,,,,7bh[32:3],,,,,,,8bh[32:3],,{16},,,,,,{32},,,,(120){16},2,3,1,4,C,,,,,,,,{32},
(140){16}
2,3,,{32},{16}4,5,,{32},{16}7,8,6,2,1,3,5,(120)6,7,18,27,Cf,,,,,,,{48},{32}D1/E1/E8/B8/B1/E2/C/B5/E6/A6/B4/E4/A3,,,,,A8/E8/B7/B6/E6/A6/B5/A7/B8/B1/E2/A2/A1/B2/B3/B4/E5/E4/D4/C/E3/D3,,{16},,,,,,,(72)A6,E6,B5,B4,E4,A3,(120){16}
7,8,7,2,1,2,{12}4x/5x,{12}A1f/B1,A5f/B5,A3f/B3,A7f/B7,Cf/B1/B5,,{16},
{16}7xh[16:9]/8x,,,{48}A1/B1,D2/E2,A2/B2,D3/E3,A3/B3,D4/E4,A4/B4,E5/D5,A5/B5,D6/E6,,,{32},{12}1x,5xh[4:2],
{16},,{64}3xb,D3,A2,D2,A1,D1,,,{32},{16},{64}7bx,B7,C,B3,A3,,,,,,,,,,,,{12},{16}
D1/E1/A1/E8/B8/B1/E2/B7/B2/B6/B3/Cf/E6/D6,,,,{32},{16},{64}2bxh[16:7]/D8,B7,B5,D5,{16}
,,{64}D4,B3,B1,D1,,,,,{16},,5bxh[4:1],{48}D1,D8,D7,D6,D5,D4,D3,D2,D1f,{16},,,,,,{32},{16}4h[4:1]/5h[4:1],,,,
,,,,,,,,,,,,,,,,,,B4,,
(140)D8,A7,D7,A6,D6,,,,,,,{32},,,{16}E2,E3,E4,E5,E6,E7,,,,
,,,,E1,E8,{32}E7h[32:9],,,,,,,,,{16}E1,E2,E3,,,{32},{16},A3,A4,A5,A6,,,,
,,,,{32},(120){16},5/6h[8:1],,8h[16:7],,,
{64}D2,E2,C,E6,D6,,,,D8,E8,C,E4,D4,,,E2/B2/B3/E4/B4/B5/E6/A6/A3/A4/A1/E7/B7/B8/E1,,
{16},,,
{12}A7,A6/A8,A1/A5,A4/A2,A3,,
{16},,6bh[8:1]/7bh[8:1],,,{128},,,,{64}D2,E2,C,E6,D6,,,,D8,E8,C,E4,D4,,,E2/B2/B3/E4/B4/B5/E6/A6/A3/A4/A1/E7/B7/B8/E1f,,{16},,,,,,
,,,{32},,,(140){16}3,5,7h[8:2],,,,{32},,{16}2x,4x,6x,8x,,,,
B5,B4,,,(160)5xb,,6xb,,7xb,,8xb,,3xb/6xb,,2xb/8xb,,
,,,,,,,,,,,,,,,,,,(140)D8/A7/D7f/A6,,D2/A2/D3f/A3,,,,,,,,,,,
6x-8-5-1[8:3]/5xqq5-1b[8:3],,,,,,,,
,,,{32},{16},2,4,3,8,6,7,{32},{16}E2/B2/B3/E4/E3/A2/A3,,,C,,E8/B7/B6/E6/A6/D7,,,{32},{16},8,6,4h[16:3],,{48},,,,,,,,,,1b,2b,3b,4b,5b,6b,7b,8b,1b,,,,
{16},,,,(120)7,6,5,4,(140)3,,,,,,,,
,,,,,,,,{32},,{16},E7,,,,6bqq1[4:1],,,,,,,,{32},{16},2v3-5[8:1],,5-8-2v3-5b[2:1],,,,,(120)6h[16:5],,,,,,,,,{32},{16},C,,,,,,,,,
8,7,6,5,2bh[16:5],,,7x,{32},{16}7x,,,,,,,,,,,,,,,,
E6,E7,{48},,,,{16}E4,E3h[48:48],,,,,,,,,,,B1/C/B4,,,,,,,,,,{48},{16},7xb>2v5[4:2]/E7h[4:1],,,,,,{32},{16},,,,,,E7,,,,E6,,,,C,,,,E3h[16:44],,,,,,,,,,,,,,,,,,,,,,,,,,,,,,,,,,,{48},,,,{12}5,6,{16},{48},{16},,7h[8:1],,,,(140),8,,2,,,E7,,,4,,6,,B4,E4,,,C,,{16},,E8/B8f/B1f/E2,,,,,,,,E4,B4,,,,,{32},
{1},E6,
{48}C,,,,,,{12},5,6,7,8,{8}36,28,,,E3h[16:27],,,,,
{16},,,,,,E1,C,E5,{48},{16},D1,D8,D7,D6,D5,,E7h[16:14],,,
,,,,,,,,,,,,,,,,,,,,,,,B5,,,,,,,,,
{12}6q2[16:6],4,5,3,6,,,3,,,,4h[4:1],,8,5h[4:1],,1,3,5>2p5[4:2]*pp5[4:2],(115),,,(140),,,
,,C,,,B4/B5,,,,,,,,,,6b-2-4b[4:1]*-2-8b[4:1]/5,,,,,,,,,,5b>2p5b[4:2]*pp5b[4:2]/4
,,,,,,,,,,
18,,13,24,35,46,57,68,,,{32},,,,{72}1x,2,3,4,,,1x,2,3,4,,,{12},{72}8x,7,6,5,,,8x,7,6,5,,,{12},
,B2/E3/B3/Cf,,{48}8b,7,6,5,4b,3,2,1,8b,7,6,5,4b,3,2,1,{16}8b/Cf/B5/B4/B3,,,,,,,,
,,,,,,,,,,,,,,,,,,,,,{10},1xh[12:1],7xh[12:1],3x,D8/A7/D7/A6/D6/A5/D5/A4/E8/E7/E6/E5/B7/B6/B5/B4/C,,{16},4x,2x,{48},D8/A7/D7/E8/E7f/1b,2,3,4,5,6,7,8,{12}1b/5b,,,,{32},{12},3b/4b,5b/6b,{72}7xb/4bh[4:2],D8,A8,D1,A1,D2,A2,B2,C,E5,D5,,,,,,,,{12},,,,,,
24,35,46,57,,,D8/A7/D7/A6/D6/A5/D5/A4/E8/E7/E6/E5/B7/B6/B5/B4/Cf,,{16},,,{48},,,,,
{128},,{72},,A8,E8,B7,B6,E6,B5,B4,E4,A8,E8,B7,B6,E6,A5,D1,A1,D2,A2,B2,C,B3,A3,D4,A4,D6,A5,A7,E7,E6,A5,B5,C,B4,A4,E4,E3,A2,D2h[32:6]/A1h[32:6]/D1h[32:6]/A8h[32:6]/D8h[32:6],,,,,,,,,,,,,{32},{16},36,,{96},,,,,
(240){24}1hb[8:1]/2b,3b,4b,5b,6b,,,,,7b/8hb[8:1],6b,5b,4b,3b,,,,,,,,,,,,1h[8:1]/2b,3,4,5,6,,
,,,7b/8b,16,25,{4}3/4h[4:1],{32}2x,1x,8x,7x,6x,5x,4x,3x,2x,1x,8x,7x,6x,5x/7x,4x/8x,1x/3x,
(180){32}2x,3x,4x,5x,4x/6x,3x/7x,2x/8x,1bw5b[78#384:1],,,,{16},,,,,,
{128}(140)
,,,,,,,,A7/B7/C/B3/E3/E4/B1/A1/B5/A5/B8/B6,,(120){16},,,,,,,,,,,,,,,2>6[4:1],,,,6<2[4:1],,,,2>6[4:1],,,,6<2[4:1],,,,2>6[4:1],,,,6<2[4:1],,,,2>6[4:1],,,,6<2[4:1],,,,2>6[4:1],,,,6<2[4:1],,,,2>6[4:1],,,,6<2[4:1],,,,
2>6[4:1],,,,6<2[4:1],,,,2>6[4:1],,,,6<2[4:1],,,,,,Cf,,,,,,,,,
,,,,,,,,,,,,,,,,,,,,,,,,,,,
