&title=ALBIDA
&artist=DJ YOSHITAKA
&first=0.35
&des=S.E.L.M.A. Activated
&lv_5=14
&lv_6=14
&inote_5=(185)
{16}3h[8:2]/4h[8:1],,,,,,5h[4:1]/4h[8:3],,,,,,,,6h[4:1]/5h[8:3],,
{16},,,,,,7h[8:3]/6h[4:1],,,,,,,,3h[8:5],,
{16}4h[8:5],,,,,,,,,,2h[8:1],,5h[8:1],,3h[8:3],,
{16}6h[4:1],,,,,,,,2h[4:1]/7h[4:1],,,,,,,,
{16}3,,4,,5,,6h[4:2],,,,5,,4,,3h[4:2],,
{16},,1,,8,,7h[4:2],,,,8,,1,,2h[8:5],,
{16}6h[4:2],,,,,,,,,,,,,,2,3,
{16}4h[4:1]/5h[4:1],,,,,,,,3h[4:1]/6h[4:1],,,,,,,,
{16}2qq5[4:2]/7-4[4:1],,,,,,,,,,,,,,,,
{16}2b/8b,,2h[8:1],,7,,2h[8:1],,6,,2h[8:1],,5,,2h[8:1],,
{16}3b-7[8:1],,,,3b,,2b-5[8:1],,,,8b/2b,,,,7b,,
{16}4,,7h[8:1],,3,,7h[8:1],,2,,7h[8:1],,1,,7h[8:1],,
{16}8b-3[8:1],,,,8b,,6b-2[8:1],,,,4b/6b,,,,3b,,
{16}5,,5,,4/6,,6,,4/7,,7,,4/8,,7,6,
{16}4/5,,4,,3/5,,3,,2/5,,2,,1/5,,2,3,
{16}4/6-3[8:1],,,,,,2-7[8:1],,,,,,5-1[8:1],,,,
{16}1,2,3,4,8,7,6,5,1,2,3,4,5/8,,,,
{16}4b/7b,,6,5,6,,4h[8:1]/5h[8:1],,,,3,4,3,,4h[8:1]/5h[8:1],,
{16},,7,6,7,,4h[8:1]/6h[8:1],,,,3/7,,2,,1,,
{16}6h[4:1]/8,,,,5,,5h[8:1],,6,,5h[8:1],,7,,5h[8:1],,
{16}8,,5h[8:1],,6,,5h[8:1],,7,,4,,3/5,,2,,
{16}1b/8b,,6-8[8:1],5,6,,1h[8:1],,,,3-1[8:1],4,3,,8h[8:1],,
{16},,8,,7,,5/6p8[4:1],,,,1,,2,,3,,
{16}4b/7b,,,,6,,6h[8:1],,5,,6h[8:1],,2,,6h[8:1],,
{16}3,,4,,5,,6,,7,6,5,4,3,2,1,8,
{16}2b/7b,,4,5,4,,3h[8:1]/6h[8:1],,,,4,5,4,,3h[8:1]/7h[8:1],,
{16},,5,4,5,,2h[8:1]/6h[8:1],,,,8,,1/7,,6/2,,
{16}3h[4:1]/5,,,,4,,4h[8:1],,3,,4h[8:1],,1,,4h[8:1],,
{16}2,,4h[8:1],,3,,4h[8:1],,1,,4,,3/5,,6,,
{16}5b/7b,,6,,7,,1h[8:1]/8h[8:1],,,,2-5[8:1],1,2,,6h[8:1],,
{16},,7-4[8:1],8,7,,3h[8:1],,,,5,,2/6,,3/7,,
{16}4/8h[4:1],,,,5,,5h[8:1],,8,,5h[8:1],,6,,5h[8:1],,
{16}7,,6,,4/5,,3/4,,2,3,4,5,6,7,8,1,
{16}2b/7b,,1,,1-5[8:1],8,,6,1,,8,,7/4,,2,,
{16}3/5,,6,,8-4[8:1],1,,3,8,,2,,1/6,,7,,
{16}2b/8b,,3,,1b/7b,,5b-1[8:1],,,,5/2b-6[8:1],,,,2/8b-4[8:1],,
{16},,4b/8b,,,,3/5,,3/5,,1,,2/6,,2/6,,
{16}3,4,3,4,2,,1/8,,6,5,6,,5/7,,8,,
{16}3,4,2,4,2,,3/6,,8-4[8:1],,8,,5-1[8:1],,5,,
{16}7-3[8:1],,,,2-6[8:1],,,,2,,7-5[8:1],,8,,7,,
{16}2,,4/3,,5-1[8:1],,7/6,,,,8,,7,,6,,
{16}1,,2,,2-6[8:1],1,,5,2,,8,,1/7,,2,,
{16}4/6,,7,,7-3[8:1],8,,4,7,,1,,2/8,,7,,
{16}6b,,5/4-8[8:1],,3b,,2b-6[8:1]/4,,,,2/7b>2[8:1],,,,7/4b-8[8:1],,
{16},,4b/5b,,,,1/7,,2,4,3,4,3,,1,,
{16}2/8,,6,5,6,,1/7,,3,4,3,,2/8,,3/7,,
{16}6,4,5,4,5,,3/4,,2,1,2,,3/7,,4/6,,
{16}5/8,,7,6,5,,1/4,,2,3,4,,7,5,7,5,
{16}8,,2/6,,{32}3,4,5,6,7,8,1,2,{16}3/7-3[8:1],,,,1b>8[4:6]/7b,,,,
{1}1h[4:8],,
{16}5h[8:5],,,,,,4h[8:3],,,,,,,,3h[4:1]/6h[8:3],,
{16},,,,,,7h[4:1]/2h[8:3],,,,,,,,8h[4:3],,
{16}1h[4:3],,,,,,,,,,,,,,6h[8:3],,
{16}4h[4:1],,,,,,,,3h[4:1]/5h[4:1],,,,,,,,
{16}6,,5,,4,,3h[4:2],,,,4,,5,,6h[4:2],,
{16},,8,,1,,2h[4:2],,,,1,,8,,7h[4:3],,
{16}3h[8:5],,,,,,,,,,,,,,6,5,
{16}4h[4:1]/2h[4:1],,,,,,,,3h[4:1]/5h[4:1],,,,,,,,
{16}3/5,,6,,7h[8:3],,5,,,,4,,3h[8:3],,4,,
{16},,5,,6h[8:3],,7,,,,2,,3h[4:1],,4,,
{16}5h[4:1],,,,4,,4>1[4:1],,,,1<6[4:1],,,,6>3[4:1],,
{16},,8,,,,7h[4:2],,,,1,,2,,3,,
{16}4/6,,4,,4/7,,4,,4/8,,4,,4/7,,4,,
{16}5/3,,5,,5/2,,5,,5/1,,5,,5/2,,5,,
{16}4,3,2,1,4,5,6,7,{24}1,8,1,8,1,8,1,8,1,8,1,8,
{16}1-4[8:1],,2,,1-6[8:1]/3,,,,1/7,,,,8b,,,,
{16}1/2,,2/8,,1-5[8:1],2,,6,1,,8,,7,,6/4,,
{16}7/8,,1/6,,8-4[8:1],7,,3,8,,1,,2,,3/5,,
{16}4b/6b,,5-1[8:1],,7b,,5/8b<5[8:1],,,,2b>5[8:1]/8,,,,7b-3[8:1]/2,,
{16},,1b/7b,,,,2/8,,3,4,5,6,7,8,1,2,
{16}3/6,,4,7,3,,2/8,,1,7,2,6,3,,4/5,,
{16}5,3,6,2,7,,1/8,,1,4,2,5,3,6,2,,
{16}1-5[8:1]/7h[16:3],,,1,7,,8-4[8:1],,,,2,,3,,3,,
{16}5,,5,,1/6,,1-5[8:1],,,,1,8,7,,7,,
{16}3/7,,2,,5v2[8:1],3,,7,5,,8,,1/7,,2/6,,
{16}3/5,,4,,4v7[8:1],6,,2,4,,1,,2/8,,3/7,,
{16}4b/6b,,5>2[8:1],,6b,,7b-3[8:1]/5,,,,1b>4[8:1]/7,,,,6b<1[8:1]/1,,
{16},,2b/6b,,,,4,,3/5,,3/5,,2/6,,2/6,,
{16}1/7,,3,4,5,,2/8,,6,5,4,,2/6,,3,4,
{16}5,,1/7,,3,5,4,,2/8,,6,4,5,,3,2,
{16}1/8,,7,6,5,,1/8,,2,3,4,,5,4,3,2,
{16}1b/5b,,7b/3b,,{32}8,7,6,5,4,3,2,1,{16}8w4[8:1],,,,8b<1[4:8],,,,
{16}8h[4:8],,,,,,,,,,,,,,,,
{16},,,,,,,,,,,,,,,,
{16},,,,,,,,,,,,,,,,
&inote_6=(185)
{16}3h[8:2]/4h[8:1],,,,,,5h[4:1]/4h[8:3],,,,,,,,6h[4:1]/5h[8:3],,
{16},,,,,,7h[8:3]/6h[4:1],,,,,,,,3h[8:5],,
{16}4h[8:5],,,,,,,,,,2h[8:1],,5h[8:1],,3h[8:3],,
{16}6h[4:1],,,,,,,,2h[4:1]/7h[4:1],,,,,,,,
{16}3,,4,,5,,6h[4:2],,,,5,,4,,3h[4:2],,
{16},,1,,8,,7h[4:2],,,,8,,1,,2h[8:5],,
{16}6h[4:2],,,,,,,,,,,,,,2,3,
{16}4h[4:1]/5h[4:1],,,,,,,,3h[4:1]/6h[4:1],,,,,,,,
{16}2-5[4:1]/7-2[4:1],,,,,,,,,,,,,,,,
{16}2b/8b,,2h[8:1],,7,,2h[8:1],,6,,2h[8:1],,5,,2h[8:1],,
{16}3-7[8:1],,,,3b,,2-5[8:1],,,,8b/2b,,,,7b,,
{16}4,,7h[8:1],,3,,7h[8:1],,2,,7h[8:1],,1,,7h[8:1],,
{16}8-3[8:1],,,,8b,,6-2[8:1],,,,4b/6b,,,,3b,,
{16}5,,5,,4/6,,6,,4/7,,7,,4/8,,7,6,
{16}4/5,,4,,3/5,,3,,2/5,,2,,1/5,,2,3,
{16}4/6-3[8:1],,,,,,2-7[8:1],,,,,,5-1[8:1],,,,
{16}1,2,3,4,8,7,6,5,1,2,3,4,5/8,,,,
{16}4b/7b,,6,5,6,,4h[8:1]/5h[8:1],,,,3,4,3,,4h[8:1]/5h[8:1],,
{16},,7,6,7,,4h[8:1]/6h[8:1],,,,3/7,,2,,1,,
{16}6h[4:1]/8,,,,5,,5h[8:1],,6,,5h[8:1],,7,,5h[8:1],,
{16}8,,5h[8:1],,6,,5h[8:1],,7,,4,,3/5,,2,,
{16}1b/8b,,6-1[8:1],5,6,,2h[8:1],,,,3-8[8:1],4,3,,7h[8:1],,
{16},,1,,2,,5/3-8[8:1],,,,8,,7,,6,,
{16}3b/5b,,,,6,,6h[8:1],,5,,6h[8:1],,2,,6h[8:1],,
{16}3,,4,,5,,6,,7,6,5,4,3,2,1,8,
{16}2b/7b,,4,5,4,,3h[8:1]/6h[8:1],,,,4,5,4,,3h[8:1]/7h[8:1],,
{16},,5,4,5,,2h[8:1]/6h[8:1],,,,8,,1/7,,6/2,,
{16}3h[4:1]/5,,,,4,,4h[8:1],,3,,4h[8:1],,1,,4h[8:1],,
{16}2,,4h[8:1],,3,,4h[8:1],,1,,4,,3/5,,6,,
{16}5b/7b,,6,,7,,1h[8:1]/8h[8:1],,,,2-5[8:1],1,2,,6h[8:1],,
{16},,7-4[8:1],8,7,,3h[8:1],,,,5,,2/6,,3/7,,
{16}4/8h[4:1],,,,5,,5h[8:1],,8,,5h[8:1],,6,,5h[8:1],,
{16}7,,6,,4/5,,3/4,,2,3,4,5,6,7,8,1,
{16}2b/7b,,1,,1-5[8:1],8,,6,1,,8,,7/4,,2,,
{16}3/5,,6,,8-4[8:1],1,,3,8,,2,,1/6,,7,,
{16}2b/8b,,3,,1b/7b,,5-1[8:1],,,,5b/2-6[8:1],,,,2b/8-4[8:1],,
{16},,4b/8b,,,,3/5,,3/5,,1,,2/6,,2/6,,
{16}3,4,3,4,2,,1/8,,6,5,6,,5/7,,8,,
{16}3,4,2,4,2,,3/7,,8-4[8:1],,8,,5-1[8:1],,5,,
{16}7-3[8:1],,,,2-6[8:1],,,,2,,8-5[8:1],,7,,8,,
{16}2,,4/3,,5-1[8:1],,7/6,,,,8,,7,,6,,
{16}1,,2,,2-6[8:1],1,,5,2,,8,,1/7,,2,,
{16}4/6,,7,,7-3[8:1],8,,4,7,,1,,2/8,,7,,
{16}6b,,5/4-8[8:1],,3b,,2-6[8:1]/4b,,,,2b/7>2[8:1],,,,7b/4-8[8:1],,
{16},,4b/5b,,,,1/7,,2,4,3,4,3,,1,,
{16}2/8,,6,5,6,,1/7,,3,4,3,,2/8,,3/7,,
{16}6,4,5,4,5,,3/4,,2,1,2,,3/7,,4/6,,
{16}5/8,,7,6,5,,1/4,,2,3,4,,7,5,7,5,
{16}8,,2/6,,{32}3,4,5,6,7,8,1,2,{16}3/7-3[8:1],,,,1-5[4:6]/7b,,,,
{1}1h[4:8],,
{16}5h[8:5],,,,,,4h[8:3],,,,,,,,3h[4:1]/6h[8:3],,
{16},,,,,,7h[4:1]/2h[8:3],,,,,,,,8h[4:3],,
{16}1h[4:3],,,,,,,,,,,,,,6h[8:3],,
{16}4h[4:1],,,,,,,,3h[4:1]/5h[4:1],,,,,,,,
{16}6,,5,,4,,3h[4:2],,,,4,,5,,6h[4:2],,
{16},,8,,1,,2h[4:2],,,,1,,8,,7h[4:3],,
{16}3h[8:5],,,,,,,,,,,,,,6,5,
{16}4h[4:1]/2h[4:1],,,,,,,,3h[4:1]/5h[4:1],,,,,,,,
{16}3/5,,6,,7h[8:3],,5,,,,4,,3h[8:3],,4,,
{16},,5,,6h[8:3],,7,,,,2,,3h[4:1],,4,,
{16}5h[4:1],,,,4,,4>1[4:1],,,,1<6[4:1],,,,6>3[4:1],,
{16},,8,,,,7h[4:2],,,,1,,2,,3,,
{16}4/6,,4,,4/7,,4,,4/8,,4,,4/7,,4,,
{16}5/3,,5,,5/2,,5,,5/1,,5,,5/2,,5,,
{16}4,3,2,1,4,5,6,7,{24}1,8,1,8,1,8,1,8,1,8,1,8,
{16}1-4[8:1],,2,,1-6[8:1]/3,,,,1/7,,,,8b,,,,
{16}1/2,,2/8,,1-5[8:1],2,,6,1,,8,,7,,6/4,,
{16}7/8,,1/6,,8-4[8:1],7,,3,8,,1,,2,,3/5,,
{16}4b/6b,,5-1[8:1],,7b,,5b/8<5[8:1],,,,2>5[8:1]/8b,,,,7-3[8:1]/2b,,
{16},,1b/7b,,,,2/8,,3,4,5,6,7,8,1,2,
{16}3/6,,4,7,3,,2/8,,1,7,2,6,3,,4/5,,
{16}5,3,6,2,7,,1/8,,1,4,2,5,3,6,2,,
{16}1-5[8:1]/7h[16:3],,,1,7,,8-4[8:1],,,,2,,3,,3,,
{16}5,,5,,1,,1-5[8:1],,,,1,8,7,,7,,
{16}3/7,,2,,5-2[8:1],3,,7,5,,8,,1/7,,2/6,,
{16}3/5,,4,,4-7[8:1],6,,2,4,,1,,2/8,,3/7,,
{16}4b/6b,,5>2[8:1],,6b,,7-3[8:1]/5b,,,,1>4[8:1]/7b,,,,6<1[8:1]/1b,,
{16},,2b/6b,,,,4,,3/5,,3/5,,2/6,,2/6,,
{16}1/7,,3,4,5,,2/8,,6,5,4,,2/6,,3,4,
{16}5,,1/7,,3,5,4,,2/8,,6,4,5,,3,2,
{16}1/8,,7,6,5,,1/8,,2,3,4,,5,4,3,2,
{16}1b/5b,,7b/3b,,{32}8,7,6,5,4,3,2,1,{16}8-4[8:1],,,,4<7[4:8]/8b,,,,
{16}3h[4:8],,,,,,,,,,,,,,,,
{16},,,,,,,,,,,,,,,,
{16},,,,,,,,,,,,,,,,
