&title=月詠に鳴る (feat. 藍月なくる)
&artist=Feryquitous/藍月なくる
&first=0
&des=星雪
&lv_5=13+
&inote_5=(90)
{4},,
{16}3,,,3,,,3h[1:1],,
,,,,,,,,5,,,5,,,5h[1:1],,
,,,,,,,,4,,,4,,,4h[1:1],,
,,,,,,,,6,,,6,,,6h[8:2],,
,,,,5,4,3,2,1>5[3:1]/Cf,,6,,1,,6,6,
,,8,8qq5[3:1],,1,,8,2,,,,,E7,C,E3,
,,,,4,5,6,7,8<4[3:1],,2,,8,,1,1,
,,3h[16:1],4,,,2,,7,,4,4h[8:5],,1,,E2,
,E8,,E4,,Chf[16:3],,,1,,1,1pp4[4:1],,78,,1,
7,,6,6,,47,,34,3/4>8[4:1],,,5,4,5,,6,
6,,12,12,,35,,5/7pp4[4:1],75,,4,7,4,,3,3,
,,,6h[4:2],,,8,,2,,,3,,35,35,3/5>2[8:1],
,1,,1w5[75#16:1],,,,,A1f,,,1,1xV35[2:1],,,,
,6,6,,5xz1[2:1],,,,7,,8,,1xs5[2:1],,,,
,6,6,,5x>1[2:1],,,,7,,8,,1xqq4[2:1],,,,
,5,5,,4xV28[2:1],,,,6,,7,,8x>4[8:3],,,,
,7,7,,6x,,,,{12}
1h[16:1]/4,2h[16:1]/5,3h[16:1]/6,4h[16:1]/7,5h[16:1]/8,4h[16:1]/7,
3h[16:1]/6,4h[16:1]/7,3h[16:1]/6,2h[16:1]/5,1h[16:1]/4,2h[16:1]/5,
3h[16:1]/6,4h[16:1]/7,3h[16:1]/6,4h[16:1]/7<4[8:1],3h[16:1]/6,2h[16:1]/5,
1h[16:1],2h[16:1],1h[16:1],2h[16:1]/4,3h[16:1]/5,4h[16:1]/6,
5h[16:1]/7,4h[16:1]/6,3h[16:1]/5,2h[16:1]/4,3h[16:1]/5,4h[16:1]/6,
5h[16:1]/7,6h[16:1]/8,5h[16:1]/7,4h[16:1]/6,3h[16:1]/1,4h[16:1]/2,
3h[16:1]/5,4h[16:1]/6,3h[16:1]/5,4h[16:1]/6,6h[16:1],1h[16:1]/2,
3h[16:1]/4,5h[16:1]/6,7h[16:1]/8,{24}2,2,1,,7>7[2:1],7,8,,,,,,,,,,,,
{8},,,C,38,6/1-5-1[8:1],27,,
,{16}2,2,5,5,3,,36,36,3/6>4-8[8:1],3/6b,,,,,
,,7,7h[32:6],{32}1,2,3,4,5,,,,{8}15,2/6<8-4[8:1],6h[4:1],,
{16},,3,3,7,7,2,2,6,{32}3,4,3-5-1[8:1],4,3b,,{16},,,,
,,26,26,{32}3,7,2,6,{16}1,,B7/3,,E8/4,,B7/3,,E8,,B7
,3,E8/3,,B7/4,,E8,,B7/3,3,E8/3,3,B7,,4/E8,4,
4/B7,4,E8,,{32}4,5,6,7,8,,{16},B2/6,,5/E2,,6/B2,,E2,,
B2,6,E2/6,,B2/5,,E2,,B2/5,5,E2/5,5,B2,,6/E2,6,
B2/6b,,,,{32}4,5,3,6,2,7,1,8,{16}1b,7,1x>4[16:1],7,2,6,1xp5[16:1],6,
2,8,1x-3[16:1],6,2,5,1x-5[16:1],6,2,8,
1x>3[16:1],7,2,7,1x-6[16:1],8,
2,7,1x,5,45,45,{32}3,6,{16}3,1,1,8x<5[16:1],2,7,3,8xq4[16:1],3,
7,1,8x-6[16:1],3,7,4,8x-4[16:1],3,7,1,
8xw4[8:1],3,7,2,8x,,,
,2b/6b,,2b/6b,,,,
{12}1h[24:1],8h[24:1],7h[24:1],6h[24:1],5h[24:1],4h[24:1],
Ch[6:1],,2h[24:1],1h[24:1],8h[24:1],7h[24:1],
6h[24:1],5h[24:1],4h[24:1],3h[24:1],2h[24:1],1h[24:1],
8h[24:1],7h[24:1],6h[24:1],{16}Chf[6:1],,,,
{24}4h[24:1]/7h[8:1],,4h[24:1],,4h[24:1],,4h[24:1],{48},7h[16:1],{24}3h[24:1],,3h[24:1],,
3h[24:1]/6h[8:1],,3h[24:1],,2h[24:1],,2h[24:1],{48},6h[16:1],{24}2h[24:1],,2h[24:1],,3h[24:1]/5h[8:1],,3h[24:1],,3h[24:1],,3h[24:1],{48},5h[16:1],{24}2h[24:1],,2h[24:1],,
{16}Cfh[3:1],,,,,,,,4,4h[8:1],B7,6,64,6h[8:1],B2,1,
17,1h[8:1],E7,7,74,7h[8:1],E3,,35,3h[8:1],E6,6,62,6h[8:1],E1,1,
17,1h[8:1],B6,,{32}C/1,2,3,4,5,6,7,8,{16}1h[16:1]/4,,B4,3,34,3h[8:1],E8,8,
48,8h[8:1],E5,5,57,5h[8:1],C,,24,3,57,6,14,3,58,6,
7pp4[16:3]/2qq5[16:3],27,27,,,,,,{32}1,1,7,7,3,3,6,6,{16}1b/Cf,,7<4[16:1],7,8
,1,7/2>5[16:1],2,1,8,7-4[16:1]/2,7,8,1,2-5[16:1]/7,2,1,8,7-3[16:1]/2,7,
8,1,27,2,{32}7,6,5,4,3,2,1,8,{16}7h[16:1],,1>3[16:1],7,7,7,1-4[16:1],6,
6,6,1w5[16:1],6,7,8,1,,24,35,46,57,13,68,24,57,
{32}4,7,2,6,1,8,4,6,2,7,3,8,2,6,4,8,{16}3b-6[4:16],,,,,,,,
{16},,,,,,,,E8,,,B8,,,B1,,,,,,,,,,E8,,,B7,,,B6,,,,,,,,,,E2,,,B2,,,B3,,,,,,,,{32}E4,B4,B5,E6,
