&title=Break The Speakers
&artist=DJ Myosuke
&first=0.27
&des=Aza
&lv_6=14+
&inote_6=(185)
{1},
{16}1b/8bx,,2,4,3x,5,1>4[8:1],,8x,6,1,,7x-3[8:1],,7,,5-2b[8:1],,5,,1,8,7h[8:1],,1,8h[8:1],,5,6h[8:1],,8,7,1x,,7,5,6x,4,8<5[8:1],,1x,3,8,,2x-6[8:1],,2,,4-7b[8:1],,4,,8V62[4:1],1,2,3,{2}4h[2:1],
{16}8bx,,3,4,3,,2/5,,1/7bx,,3,4,3,,2/5,,8/2bx,,6,5,6,,4/7,,8/3bx,,6,5,6,,4/7,,
{8}2bx/6,2/6,1bx/5,1/5,4/8bx,4/8,7bx/3,7/3,{12}8bx,1,2,3/4bx,5,6,{24}7/8bx,1,2,3,4,5,{48}A8/6,D1`E1,A1`B1,D2`E2,A2`B2,E3`D3,A3`B3,E4`D4,A4`B4,E5`D5,A5`B5,D6`E6,
{1}A6f/8bw4[8:1],{4}7bx/8bx,1bx/2bx,4bx/5bx,1b-4[8:1]/8b,
{24}1/5-2[8:1],6,7,{8}8,{24}1-4[8:1]/5,8,7,{8}6,{24}1/5-2[8:1],6,7,{8}8,{24}1-4[8:1]/5,8,7,{8}6,{24}1/5-2[8:1],6,7,{8}8,{24}1-4[8:1]/5,8,7,{8}6,{24}1/5,6,7,{8}8,1/2,{16}1/2,3/8,{4}4-1[8:1]/7,{24}8-3[8:1]/4,7,6,{8}5,{24}4/8,5,6,{8}7,{16}6,5,7,4,{8}8-4[8:1],,3b/8,2-6-1[4:1],,7,7h[8:1],,
{4}A6/D6/E6/A5/2h[8:1],8h[8:1]/A3/D4/E4/A4,1h[8:1]/A7/A6/D7/E7,5h[8:1]/A2/D3/A3/E3,Chf[1:1]/8h[8:1],7h[8:1],6h[8:1],{16}5,6,7,8,{1}1b>8[2:1],{4}2h[8:1]/3h[8:1],6h[8:1]/7h[8:1],1h[8:1]/8h[8:1],{16}2/7,3/6,{8}4/5,{24}1bv3[8:1]/8b-4[8:1],2/7,3/6,{8}4x/5x,{4}1/8-6[8:1],2-5[8:1]/8,{8}2/4,6,{4}8-3[8:1],4/8-4b[8:1],{8}2>5[8:1]/8,1,2/6-1[8:1],7,{4}2pp6[2:1]/6,E4/D4,E6/D6,E8/D8,E2/D2/Cf,{4},,A6h[16:1]/B6h[16:1]/D6h[16:1]/E6h[16:1]/A5h[16:1]/B5h[16:1]/D5h[16:1]/E5h[16:1]/A4h[16:1]/B4h[16:1]/D4h[16:1]/E4h[16:1]/A3h[16:1]/B3h[16:1],
{128}2hb[8:1]/A1,D1,E1,A8,B8,D8,E8,A7,B7,D7,E7,A6,B6,D6,E6,A5,{8}B5,
{128}2hb[8:1]/A1,D1,E1,A8,B8,D8,E8,A7,B7,D7,E7,A6,B6,D6,E6,A5,{8}B5,
{128}2hb[8:1]/A1,D1,E1,A8,B8,D8,E8,A7,B7,D7,E7,A6,B6,D6,E6,A5,{8}B5,3b/4b,2b/5b,
{128}A1,D1,E1,A8,B8,D8,E8,A7,B7,D7,E7,A6,B6,D6,E6,A5,B5,D5,E5,A4,B4,D4,E4,A3,{16}B3,
{128}A1,D1,E1,A8,B8,D8,E8,A7,B7,D7,E7,A6,B6,D6,E6,A5,B5,D5,E5,A4,B4,D4,E4,A3,{16}B3,
{8}1b/2b,3b/4b,5b/6b,{16}7b,7b,
{128}A8,D1,E1,A1,B1,D2,E2,A2,B2,D3,E3,A3,B3,D4,E4,A4,B4,D5,E5,A5,B5,D6,E6,A6,{16}B6,
{128}A8,D1,E1,A1,B1,D2,E2,A2,B2,D3,E3,A3,B3,D4,E4,A4,B4,D5,E5,A5,B5,D6,E6,A6,{16}B6,
{8}7b/8b,1b/6b,{16}7b,8b,7b,,{4}1b<2[4:1]/6hb[2:1],,,1x/8x,
{32}2h[8:1]/E6,B5,B4,E4,{8},{32}3h[8:1]/E8,B8,B1,E2,{8},{32}2h[8:1]/E6,B5,B4,E4,{8},{12}7x,8,7,{32}1h[8:1]/A6,E6,E5,A4,{8},{32}1h[8:1]/A7,B7,C,B3,{8},{32}A8,E1,E2,A2,E3,E4,{16}E5/A4,C,,,6,{1}1<2[8:5],{4}1/8^7-5[8:1],8/2^3-5[8:1],2/1v7[8:1]*q6[8:1],1b,
{24}4xv1[8:1]/8x,1,2,{8}3,{24}4-7b[8:1]/8,7,6,{8}5,{16}1x/4,2x,{8}3x,8-3[8:1],2/6,{24}4-8b[8:1]/8,5,6,{8}7,{24}4/8V25[4:1],7,6,{8}5,{16}4x,5x,6x,,6,,7,,
{24}4xv7[8:1]/8x,7,6,{8}5,{24}4-1b[8:1]/8,1,2,{8}3,{16}8x/4,7x,{8}6x,8-4[8:1],1/7,8b>6[4:1],,,,{16}1,2,3,4,{8}1/5,1/5,
{24}5xv8[8:1]/1x,8,7,{8}6,{24}5-2b[8:1]/1,2,3,{8}4,{16}8x/5,7x,{8}6x,1-6[8:1],7/3,{24}5-1b[8:1]/1,4,3,{8}2,{24}5/1V74[4:1],2,3,{8}4,{16}5x,4x,3x,,3,,2,,
{4}1hbx[8:1]/5hbx[8:1],{96}A2/A6,D7`D3,`E7`E3,A7`A3,B7`B3,D8`D4,E8`E4,A8`A4,B8`B4,D1`D5,,,{8},{4}1hbx[8:1]/5hbx[8:1],{96}A8/A4,D8`D4,E8`E4,A7`A3,B7`B3,D7`D3,E7`E3,A6`A2,B6`B2,D6`D2,,,{8},
{24}3bx,2bx,1bx,8bx,7bx,6bx,5bx/3bx,2bx,1bx,8bx,7bx,6bx,5bx/3bx-7[8:1],2bx,1bx,8bx,7bx,6bx,{4}5bx,
{1}E1h[1:2]/B1h[1:2]/E2h[1:2]/E6h[4:15]/B5h[16:61]/E5h[16:62],,,,
{8}2>6[4:1],1,7,,8,8,1/7,,7<3[4:1],8,2,,1,1,8/2,,3,4,3/5,,6<4pp1[1:1],5,4h[4:19]/6,,
{1},
{4}3b-8[8:1],{32},E3,,,{8},{4}6-1b[8:1],{32},E7,,,{8},{4}3-8[8:1],{32},E3,,,{8},{4}6-1b[8:1],{32},E7,,,{8},{4}3b-8[8:1],{32},E3,,,{8},{4}6-1b[8:1],{32},E7,,,{8},{4}3-8[8:1],{32},E3,,,{8},{4}6-1b[8:1],{32},E7,,,{8},
{16}2h[8:1],,3,1h[8:1],,4,8h[8:1],,5,7h[8:1],,4,6,,{4}B3h[4:1],{8}5,5,6v7-1[4:1],2-5[8:1],,,,{16}7/8hx[8:1],,6,1h[8:1],,5,2h[8:1],,4,3h[8:1],,5,2,,{24}A6/B6,B7,A8/B8,B1,A2/B2,B3,{4}B4h[2:1]/A4h[2:1],,{8},1b,,
{8}1b/8,1/8,2/7,2/7,3/6,3/6,4/5,4/5,4b/8,3b/7,2b/6,1b/5,4b/8,3b/7,2b/6,1b/5,7b/8,7/8,1/6,1/6,2/5,2/5,3/4,3/4,{1}4h[4:3]/8b>7[2:1],{16}2,1,3,8,2,1,3,8,2-6-4[8:1],1,3,8,{4}2b,{16}7,8,6,1,7,8,6,1,7V51[8:1],8,6,1,7b,,,,
{16}2b,8,3,7,2,8,4,6,3b,5,2,6,3,5,1,7,{24}2b,6,2,6,2,6,3b,7,3,7,3,7,{32}4b,5,6,7,8,1,2,3,{12}4/8,4/8,4/8,
{4}1/5b-1[8:1]*-2[8:1],5x,7-4[8:1]/8-4[8:1],7bx/8bx,{24}1b/2h[8:1],8,7,6,5,4,{8}1x,7/8,1-5[8:1]/6-3[8:1],1/6,,,{4}2V48[8:1],2/8,6V84b[8:1],1/6,
{48}A2,D2/E2,A1/B1,D1/E1,A8/B8,D8/E8,A7/B7,D7/E7,A6/B6,D6/E6,A5/B5,D5/E5,{8}8bx,{96}1bx/A7,D7,E7,A6,B6,D6,E6,A5,B5,D5,E5,A4,B4,D4,E4,A3,B3,D3,E3,A2,B2,D2,E2,A1,{8},4bx/8bx,,
{16}1b,8,2,7b,3,6,2b,4,3,7b,5,6,{8}3b>8[8:1],2x,{24}7-3b[8:1],6,5,4,,,{16}7,2,2,,{24}1b-5[8:1]/5,2,3,{16}4,7b,1,,6b,,
{16}8b,1,7,2b,6,3,7b,5,6,2b,4,3,{8}6b<1[8:1],7x,{24}2-6b[8:1],3,4,5,,,{16}2,7,7,,{24}8bx/4h[8:1],7,6,{16}5,{24}2bx/6h[8:1],3,4,{16}5,7b/8b,,
{16}6b,1,7,2b,8,3,6b,4,5,1b,3,2,{8}8b,4b/7b,,{16}2bx/5bx,,2bx-7[8:1]/5bx,3bx/6bx,4bx/7bxV15[4:1],,2bx/6bx,,,4bx,,,8bx,,
{16}3b,8,2,7b,1,6,8b,7,1,6b,2,5,{32}3b,4,5,6,7,8,1,2,{4}3b-6[8:1]/7b-2[8:1],,Chf[4:1],E7h[4:1]/B7h[16:5]/E8h[16:6],
{24}5bx,4bx,3bx,2bx,,,{16}2,1,3,7,8,6,1,8,2-5[8:1],6,4,8,2b,,7,,7/8x,1/6,2h[2:1]/5,,3b,,,1b,,,7b,,{24}8b/6x,1,2,3,{48}4,{24}8b,7,6,5,{48}4,{24}8b,1,2,3,{48}4,{24}8b,7,6,5,{48}4,{8}1bV75[8:1],3b/7b,{16},,2,,3,4,3,,2b/5b,,,4b/7b,,,1b/8b,,
{16}1h[8:1]/2h[8:1],,,3h[8:1]/8h[8:1],,,1h[8:1]/6h[8:1],,,4h[8:1]/8h[8:1],,,{24}1/6h[8:1],2,3,4,5,6,{8}7b,7/8,{16}7/8,1/6,2pp5[4:1]/5,,6,,,7,,,8,,{24}1b,8,7,6,{48}5,{24}1b,2,3,4,{48}5,{24}1b,8,7,6,{48}5,{24}1b,2,3,4,{48}5,{8}8b,2bqq5[8:3]/6bqq1[8:3],
{4},,,4-7[8:1]/8,
{24}4-1[8:1]/8,1,2,{8}3,{24}8/4-7[8:1],7,6,{8}5,{24}4-1[8:1]/8,1,2,{8}3,{24}8/4-7[8:1],7,6,{8}5,{24}4-1[8:1]/8,1,2,{8}3,{24}8/4V62[4:1],7,6,{8}5,{24}4/8,1,2,{8}3h[4:1],,1x,
{24}5-8[8:1]/1,8,7,{8}6,{24}1/5-2[8:1],2,3,{8}4,{24}5-8[8:1]/1,8,7,{8}6,{24}1/5-2[8:1],2,3,{8}4,{24}5-8[8:1]/1,8,7,{8}6,{24}1/5V37[4:1],2,3,{8}4,{24}5/1,8,7,{8}6h[4:1],,8x,
{8}1/5,1/5,2/6,2/6,3-8[8:1]/7-4[8:1],3/7,,,1bx/5bx,1bx/5bx,2bx/6bx,2bx/6bx,3bx-6b[8:1]/7bx-2b[8:1],3bx/7bx,,,
{32}1,8,7,,{16}5,6,5,6,4h[8:1],,{32}8,7,6,,{16}3,5,{32}1,2,3,,7,6,5,,{4}1bs5[4:1],,,E7/E3h[8:9]/E4h[8:9]A/E6/E5/B6/B5/B4/B3h[8:9]/Cf,
{64}A1,D1/E1,A8/B8,D8/E8,A7/B7,D7/E7,A6/B6,D6/E6,{8}A5/B5,{64}A1,D1/E1,A8/B8,D8/E8,A7/B7,D7/E7,A6/B6,D6/E6,{8}A5/B5,{64}A1,D1/E1,A8/B8,D8/E8,A7/B7,D7/E7,A6/B6,D6/E6,{8}A5/B5,Ch[2:1],,
{64}A8,D1/E1,A1/B1,D2/E2,A2/B2,D3/E3,A3/B3,D4/E4,{8}A4/B4,
{64}A8,D1/E1,A1/B1,D2/E2,A2/B2,D3/E3,A3/B3,D4/E4,{8}A4/B4,7x/8x,7x/8x,1/6,{16}7,7,
{96}A8,D1/E1,A1/B1,E2/D2,A2/B2,D3/E3,A3/B3,D4/E4,A4/B4,D5/E5,A5/B5,D6/E6,{8}A6/B6,
{96}A8,D1/E1,A1/B1,E2/D2,A2/B2,D3/E3,A3/B3,D4/E4,A4/B4,D5/E5,A5/B5,D6/E6,{8}A6/B6,7/8,1/6,{16}7/8,1/6,2/5,3/4,{4}Cf,,,1hx[8:1]/5hx[8:1],
{64}A6`A2,D7/E7/D3/E3,A7/B7/A3/B3,D8/E8/D4/E4,A8/B8/A4/B4,D1/E1/D5/E5,A1/B1/A5/B5,D2/E2/D6/E6,{8},
{64}A6`A2,D7/E7/D3/E3,A7/B7/A3/B3,D8/E8/D4/E4,A8/B8/A4/B4,D1/E1/D5/E5,A1/B1/A5/B5,D2/E2/D6/E6,{8},
{64}A6`A2,D7/E7/D3/E3,A7/B7/A3/B3,D8/E8/D4/E4,A8/B8/A4/B4,D1/E1/D5/E5,A1/B1/A5/B5,D2/E2/D6/E6,{8},Ch[8:1],{96}A2,D2,E2,A1,D1,E1,A8,D8,E8,A7,,,{8}D3/E3f/A3/D4/E4,{96}A4,D5,E5,A5,D6,E6,A6,D7,E7,A7,,,{8}1hb[8:1],,3b/A8/E8/E1/B8/D8,1b/A6/E6/D6/B6/E7,7b/A4/E4/B4/D4/E5,{64}5b/A2/D2/E2/B2/E3,C,B6,A6,{16},
{128}A7/B7,D8,E8,A8,B8,D1,E1,A1,B1,D2,E2,A2,B2,D3,E3,A3,B3,D4,E4,A4,B4,D5,E5,A5,B5,,,,,,,,
{128}A7/B7,D8,E8,A8,B8,D1,E1,A1,B1,D2,E2,A2,B2,D3,E3,A3,B3,D4,E4,A4,B4,D5,E5,A5,B5,,,,,,,,{8}6b,6b,{16}7b,5,7b,5,
{48}7b,D8/E8,A8/B8,D1/E1,A1/B1,D2/E2,A2/B2,D3/E3,A3/B3,D4/E4,A4/B4,D5/E5,{8}1bx,{96}8bx/A2,D3,E3,A3,B3,D4,E4,A4,B4,D5,E5,A5,B5,D6,E6,A6,B6,D7,E7,A7,B7,D8,E8,A8,{8},5bx/1bxw5b[8:1],,{16}A1f,D1/D2/D3/D4/D5/D6/D7/D8/A2/A3/A4/A5/A6/A7/A8/E1/E2/E3/E4/E5/E6/E7/E8/B1/B2/B3/B4/B5/B6/B7/B8/Cf,
