&title=【电棍】小拉栗の冒険
&artist=废部对策委员会
&first=-0.89
&des=心白-HW
&des_4=心白-HW
&des_5=心白-HW
&lv_4=12+
&lv_5=14+
&inote_4=(186){4},,,,{1}1h[1:1],
2h[1:1],
3h[1:1],
{2}4h[2:1],3,
{1}5h[4:3]/2h[4:3],
6h[4:3]/1h[4:3],
7qq4[4:3]/8pp3[4:3],
{4},,,4<3[4:3],
,,,5,
5>6[4:3],,,3,
{2}3qq5[2:1],6pp4[2:1],
3h[4:3],6h[4:1],
{4}E5,B5/B4,B3/B6,E7/E3,
B2/B7,B8/B1,E1,1bx/8bx<1b[4:7],
{1}Cf,
{4},,,,8,
7,6,5,
4,3,2,1,
{8}8,8,{4}7,{16}6/4,,,5/3,,,{8}4/2,
1,1,{4}2,{16}3/5,,,4/6,,,{8}5/7,
8,8,{4}7,{16}6/4,,,5/3,,,{8}2/4,
3,5,4,6,{2}5w1[8:1],
{4}7h[8:1]/3h[8:1],4h[8:1]/6h[8:1],5h[8:1]/3h[8:1],2h[8:1]/6h[8:1],
{16}3,4,{8}3,{16}5,4,{8}5,{4}6/2,3/7,
{1}2xh[2:1]/8xv6-4[2:1],
6xh[2:1]/4xv3-1[2:1],
{4}2h[8:1]/6h[8:1],5h[8:1]/3h[8:1],4h[8:1]/6h[8:1],7h[8:1]/3h[8:1],
{16}6,5,{8}6,{16}4,5,{8}4,{4}3/7,6/2,
1-3[8:1],5-7[8:1],4-8[8:1],8,
{1}1pp4[2:1]/7qq4[2:1],
{16}3,4,3,4,3,4,3,4,2,5,3,4,2,5,3,4,
2,5,2,5,3,6,3,6,4,5,4,5,{4}4b,
{16}6,5,6,5,6,5,6,5,7,4,6,5,7,4,6,5,
7h[8:1],,,5h[8:1],,,{8}6h[8:1],{16},4h[8:1],,,{4}5h[8:1],
{16}3,4,3,4,3,4,3,4,2,5,3,4,2,5,3,4,
2,5,2,5,3,6,3,6,4,5,4,5,{4}4b,
{8}6x/3x,6/3,6/3,6/3,6/3,6/3,6/3,6/3,
2/7,2/7,7/2,7/2,1/8,1/8,{4}1b/8b,
2/4,3/5,4/6,5/7,
8/1,2/7,6/3,4/5,
1/2,3/8,7/4,6/5,
3/4,5/2,1/6,8/7,
1V73-5[2:1],{8},,,,8,8,
{4}8V26-4[2:1],{8},,,,1,1,
{2}1q5[8:1],7p3[8:1],
{24}E3,B3,{12}B4,{24},,E7,B6,{6}B5,Cfh[4:1],{24},,,,,,,,{8}2,
{16}2,4,,4,{8}5,{16}5,7,,7,{8}1,8,
{4}2-6[8:1],1-5[8:1],8-4[8:1],7-3[8:1],
{1}5qq2[2:1]*qq1[2:1],
8pp5b[2:1]*pp6b[2:1],
{8}7,{16}7,5,,5,{8}4,{16}4,2,,2,{8}8,1,
{4}7-3[8:1],8-4[8:1],1-5[8:1],2-6[8:1],
{1}4pp1[2:1]*qq8[2:1],
{8}2,2,7,7,{16}1b,8b,1b,8b,1b,8b,1b,8b,
{4}1>4[4:1],4<7[4:1],{2}7>2[4:1],
{4}5<8[4:1],8>3[4:1],{2}3<6[4:1],
{4}3>8[4:1],8<5[4:1],{2}5>2[4:1],
{4}7<4[4:1],4>1[4:1],{2}1<6[4:1],
{8}3,4,2,7,8,6,4,5,
3,2,1,8,7,6,5,4,
3b,3,{4}3h[4:1],{8}5,5,{4}5h[4:1],
{8}7,7,{4}7h[4:1],{8}1,1,{4}1h[4:1],
{8}8,8,1,1,7,7,2,2,
6/3,6/3,{4}6/3,{2}4/5-8[8:1],
{16}1/3,,,2/4,,,{8}3/5,{16},4/6,,,{4}7/5,
{16}8/6,,,7/5,,,{8}6/4,{16},5/3,,,{4}4/2,
{2}3/1-5[8:1],6/8-4[8:1],
{8}2/7,2/7,2/7,7/2,{16}1,8,1,8,1,8,1,8,
1,8,1,8,,,,,{2}2bpp5pp8[8:13],
,,,7<4q8[8:5],
,2pp4>8[8:5],
,6V82[8:5],
,1V35[8:5],
,8-5-2-6[8:9],
,,1v3[4:1],
4V26-8[8:5],
,1-5[16:3],
7-3[16:3],5pp7[2:1]*qq3[2:1],
,6-1[2:1]/4-1[2:1],
{8},,,,1-3[2:1]*-7[2:1],1,,,,,,,3-5[2:1]/7-5[2:1],
3/7,,,,,,,{2}5V31-4b[4:7]*V71-6b[4:7],
E
&inote_5=(186){4},{8},,,,,,,,5,
5,5h[8:1],4h[8:1],3h[8:1],2h[8:3],
,,{4}4h[4:1],5h[4:1],7h[4:1],
6h[4:1],{8}5,5h[4:1],,4,{4}4qq4[4:1],
,5h[4:1],6h[4:1],7h[4:1],
{8}1h[8:5],,,,,8,8h[4:1],1,
{4}1h[4:1],{8}2,2h[4:1],,1pp4[8:9]*qq6[8:9],,1,
{1},{4},,{8},{16}4,
6,3,7,2,8,
{1}1b>5[2:1],
{4}8<4[2:1],4,3,2,
{2}1-5[8:1],7-3[8:1],
{4}5qq2[2:1],6,7,8,
{8}E8,E2,E7,E3,E6,E4,E5,C,
B6,B2,B7,B3,{4}C,4>6[4:7]/5<3[4:7],
{1}A5/A4/D5f,
{8},,,,,,,,,5h[8:1]/4h[8:1],
,4h[8:1]/3h[8:1],,5h[8:1]/4h[8:1],,6h[8:1]/5h[8:1],
,4h[8:1]/5h[8:1],,6h[8:1]/3h[8:1],,7h[8:1]/2h[8:1],,8/1,
1,2,{16}3,4,{8}3,5h[8:1],{16}4,6h[8:1],,5,{8}7,
8,7,{16}6,5,{8}6,4h[8:1],{16}5,3h[8:1],,4,{8}2,
1/3,2,{16}4,3,{8}5,4h[8:1],{16}6,6h[8:1],,8,{8}8,
7/1,8,{16}2,6,3,5,{4}4w8[8:1],4b,
{16},,1,1,7,7,5,5,{8}7h[8:1],{16}5,5,{8}6h[8:1],4,
{16}7,6,{8}5,{16}3,4,{8}5,{16}6,5,{8}4,2,{16}5x,3x,
4x,1x,{8}1x,{16}E1,E2,{8}E3,{16}E8,E4,E7,E5,{8}E6,{16}4x,6x,
5x,8x,{8}8x,{16}E1,E8,{8}E7,{16}E2,E6,E3,E5,{8}E4,C,
{16},,8,8,2,2,4,4,2,2,5,5,3,3,6,6,
4,4,7,7,5,5,8,8,5,4,3,2,8q4[12:1],7,6,5,
{8}8,{16}6,5,7,5,6,4,5,4,5,3,4,2,4,3,
{2}5p1[8:1]*pp7[8:1],{16}2h[16:1],6h[16:1],3h[16:1],5h[16:1],{4}4h[8:1],
{8}3/5,{16}4,4,4,4,4,4,3,5,3,5,2,6,2,6,
{32}1x-5[8:1],2,{16}3,{32}7x-3[8:1],6,{16}5,{8}1,7,4h[16:1],4h[16:1],{4}5/3,
{8}6/4,{16}5,5,5,5,5,5,6,4,6,4,7,3,7,3,
7x,6,5,7x,6,5,8x,7,6,8x,7,6,8x,7,6,5,
{8}4/2,{16}3,3,3,3,3,3,4,2,4,2,5,3,5,3,
{8}6/4,1/7,5/3,2/8,{32}1q5[8:1]*p5[8:1],2,3,4,5,6,7,8,{4}1b,
{8}2/8,{16}1,1,1,1,1,1,1,1,1,1,1,1,1,1,
1h,1h,1h,1h,1h,1h,1h,1h,1z5b[8:1]*s5b[8:1],1h,1h,1h,{4}1bx,
{8},5h[8:1],,6h[8:1]/4h[8:1],,7h[8:1]/3h[8:1],,2h[8:1]/8h[8:1],
,7h[8:1]/1h[8:1],,2h[8:1]/6h[8:1],,5h[8:1]/3h[8:1],,C,
,4h[8:1]/6h[8:1],,3h[8:1]/5h[8:1],,2h[8:1]/6h[8:1],,8h[8:1]/4h[8:1],
,3h[8:1]/7h[8:1],,5h[8:1]/1h[8:1],,2h[8:1]/6h[8:1],,C,
7x,{16}7,6,,6,{8}5,{16}5,4,,4,5,3,4,2,
{8}3x,{16}3,2,,2,{8}1,{16}1,8,,8,7,8,6,1,
{8}5xh[16:3],{16}3,3h[8:1],,,{8}7h[8:1],5xh[16:3],{16}7,7h[16:3],,,{8}3h[8:1],
{32}8x,7,{16}6,,2h[8:1],{32}7x,6,{16}5,,1h[8:1],{32}6x,5,{16}4,,,{4}Cf/B3/B4/B5/E5/E4,
{8}7x/1x,{16}6,8h[8:1],,7,{8}1h[8:1],{16}8,2h[8:1],,1,3,8,4,7,
5,4,3,2,8/1,7,6,5,3h,4h,{8}2h,{16}6h,5h,{8}7h,
{16}4h,6h,{8}2h,{16}E3,B2,B1,E1,E7,B6,B5,E5,{4}C,
{16}8h,2h,{8}6h,{16}E7,B7,B8,E1,E3,B3,B4,E5,{4}C,
{8}2x/8x,{16}3,1h[8:1],,2,{8}8h[8:1],{16}1,7h[8:1],,8,6,1,5,2,
4,5,6,7,8/1,2,3,4,7h,5h,{8}6h,{16}1h,3h,{8}2h,
{16}6h,4h,{8}5h[8:5],{16}B4,B5,B6,B7,B8,B1,B2,B3,{4}B4,
{16}6h,5h,{8}6h,{16}4h,5h,{8}4h,{16}5b,5b,5b,5b,5b,5b,5b,5b,
{8}6xp4[8:3],,,3,{4}3-8[8:1],3,
{8}6p4[8:3],,,1,{4}1-5[8:1],1,
{8}6pp4[8:3],,,3,{4}3-8[8:1],3,
{8}6pp4[8:3],,,2,{4}2-5b[8:1],2b,
{8}6<1[8:1],5,4,3,2-4[8:1],1-5[8:1],2,1,
3>8[8:1],4,5,6,7,8,1<6-2>5-8-4-1b[4:7],2,
{1}1b/3bh[4:7],
{8},,,,,,,,1/3,
3/1,2/8,2/8,1/7,1/7,8/6,8/6,
{32}8,1,2,3,4,5,6,7,8,1,2,3,4,5,6,7,{4}8h[8:1],6bh[8:1]/2bh[8:1],
{16}4bx,5,3,6bx,5,7,3bx,4,2,7bx,8,6,4,5,3,6,
2bxh,4,8h,6bx,4h,8,2bxh,6,8h,4bx,2h,8,4h,6,8h,4,
1b,6,2,5,3,4,2,2,8b,3,7,4,6,5,7,7,
{32}1b,2x,3x,4x,{8}5xh[16:1],{32}8b,7x,6x,5x,{8}4xh[16:1],{16}3h,3h,3h,3h,3h,3h,3h,3h,
3h,3h,3h,3h,,,,,{4}8h[8:1]/1pp4[2:3],8h[8:1],
8h[8:1],8h[8:1],7h[8:1],7h[8:1],
7h[8:1],7h[8:1],6h[8:1]/3qq4[2:3],6h[8:1],
6h[8:1],6h[8:1],5h[8:1],5h[8:1],
5h[8:1],5h[8:1],4h[8:1]/6qq8[2:3],4h[8:1],
4h[8:1],3h[8:1],1h[8:1],1h[8:1],
1h[8:1],1h[8:1],2h[8:1]/7p6[8:5],2h[8:1],
2h[8:1],4h[8:1],7h[8:1]/3p2[8:5],7h[8:1],
6h[8:1],6h[8:1],5h[8:1]/1>4[2:1],5h[8:1],
5h[8:1],7h[8:1],3h[8:1]/8<5[2:1],3h[8:1],
3h[8:1],3h[8:1],1h[8:1]/4q6[2:1],1h[8:1],
1h[8:1],2h[8:1],5h[8:1]/3>8q4[2:1],5h[8:1],
5h[8:1],5h[8:1],3h[8:1]/4pp6[2:1],3h[8:1],
3h[8:1],3h[8:1],4h[8:1]/5pp6[2:1],4h[8:1],
4h[8:1],4h[8:1],5h[8:1]/3v4[2:1],5h[8:1],
5h[8:1],5h[8:1],5h[8:1]/Ch[1:1],5h[8:1],
5h[8:1],5h[8:1],{2}5s1V73[4:15],
E6,E2,
E8,E4,
E
