&title=Frost
&artist=松井恵理子; 内田真礼; 嘉山未紗
&first=0.02
&des=Frosting ~ 悴みつつ冬待つ蕾
&lv_5=13
&inote_5=(172)
{4},,,,
{4}1x>8[8:15],,,{32}E7,B6,,,,,,,
{1},
{4}1s5[12:8],,,{32}D7,A6,,,,,,,
{8},,,6,5,7,4,,
{4}8<1[8:12],,,{32}E3,B2,,,,,,,
{1},
{8}8h[8:3],,,2h[8:3],,,6p4[2:1],,
{2},1b,
{8}25,4,3-8[8:1],,53,,7qq8[12:7],,
{4},2-4[12:1],2,5x,
{8}74,5,6^1[8:1],,46,,2pp1[12:7],,
{4},7-5[12:1],7,4,
{8}26,4,5-2[8:1],,75,,6pp5[8:5],,
{4},4-8[8:1],4,1,
{1}2v3-5[4:5],{-1},{1}6v7-1[4:5],
{1},
{8}4h[4:5],,,6,,,7V51[2:1],,
{8},,,,2,,8,5,
{8}6h[4:1],,3,2h[4:1],,4h[4:1],,3<1[4:3],
{8},,7h[2:1],,,,,,
{8}5h[4:5],,,3,,,2V48[2:1],,
{8},,,,7,,1,4,
{8}3h[4:1],,6,6h[4:1],,4h[4:1],,5>7[4:3],
{1},
{8}1h[4:5],,,7,,,6V84[2:1],,
{8},,,,3,,6,5,
{8}8h[4:1],,4,3h[4:1],,5h[4:1],,2<5[4:3],
{4},8p4[8:3],,,
{8}2h[8:3],,,4h[8:3],,,5-1-3[2:1],,
{4},,4,26,
{8}2h[12:5]/6h[12:5],,,,{48},B3,B7,B4,B8,E5,E1,,,,,,{8},,
{16}3x/7x^4[8:1],,,3,7,,2,,1w5[8:1],,,,1,,,,
{8}7bx/3bx,7x-4[8:1]/3x,,7x/1x,,,26,2-5[8:1]/6,
{8},28,,,37,3/7-4[8:1],,78,
{4},1q5[4:1],5^2[4:1],7,
{8}8x,2x-5[8:1]/6x,,2x/8x,,,46,7-4[8:1]/2,
{8},78,,,35,2-5[8:1]/6,,12,
{8},,8-4[8:1],3,8,2-5[8:1],6,2,
{8}7h[8:8],,5,5,,3,3,,
{8}1,1h[8:8],,B6,E5,,E1,B2,
{8},E8,C,,4x,5,64,,
{4}3h[4:1],4h[4:1],5h[4:1],6h[4:1],
{4}2h[4:1],4h[4:1],5-2[8:1],5/7-4[8:1],
{4}7/1-5[8:1],1bx/3b<6[8:1],7b-3[8:1]/3b,1bh[4:4]/7b,
{1},
{48}D8f,A7,D7,A6,D6,,,,,,,,{16},,,,{48}D2f,A2,D3,A3,D4,,,,,,,,{16},,,,
{16}7x/4x,,5-1[8:1],,6,,4,,3<6[8:1],,2,,8bqq7[16:5],,,,
{16},,1,,1>7[16:5],,,,3h[4:1],,,,,,1,,
{16}2h[4:1]/8,,,,4,,6,,3h[4:1],,5qq4[16:5],,7,,8,,
{16},,6,,6h[4:2],,,,7x,,,,{48}D8f,A8,D1,A1,D2,,{16},,
{16}6,,7v4[8:1],,8,,1,,8>3[8:1],,7,,5bqq4[16:5],,,,
{16},,6,,6<3[16:4],,,,7h[4:1],,,,,,5,,
{16}6h[4:1]/4,,,,5,,3,,6h[4:1],,4-8[16:2],,3v5[16:3],,1v7[16:3],,
{16},,,,,,,,3v8[8:1],,,,{16}4hb[4:1],,{16},,
{16}1,,,25,,,3h[8:2]/6,,{48}A8,D1,A1,D2,A2,D3,,D4,A4,D5,A5,D6,{16}A6f,,,,
{16},,1,,1w5[8:1],,,,1,,,,,,8,,
{16}8,,,74,,,63,,5<8[8:1],,2>5[8:1],,5qq1[4:2],,2,,
{16},,7,,7,,,,5,,,,{16},,4,,
{16}3/5<8[4:1],,,,,,3,,4>1[4:1],,1,,1q5[8:2],,,,
{16},,6,,6h[4:1],,,,7,,8,,7/1h[4:5],,,,
{24}A5,D5,A4,{16},,,,,,,,,,,,,,
{16}4>6[4:2],,,,,,,,Cf,,,,,,,,
{16}25,,4,,3,,2>5[8:1],,1,,8,,7,,6qq7[24:11],,
{8},2,1-3[12:1],,1,,8,,
{8}74,5,6,7<4[8:1],8,1,3,3h[8:3],
{8}1,8,7V13[4:1],,3V57[4:1],,,1q5[16:3],
{16}1,,,,,,8,,7,,6,,5<8[8:1],,4,,
{16}3,,2,,1qq7[16:3],,,,2,,,,1q5[8:1],,,,
{16}2,,,,1>7[4:1],,8,,71,,,,8b,,,,
{16}5x,4x,3x,2x,E7,B6,B5,E5,8x,7x,6x,5x,8b,,,,
{16}73,,6,5,6,,4/7-4[8:1],,8,,1,,2,,3qq4[24:11],,
{8},6,5-1[12:1],,5,,7,7,
{16}26,,3,4,3,,5/2-5[8:1],,1,,8,,7,,6pp1[8:4],,
{8},3,2>5[8:1],,2,,,8,
{16}4/6h[4:1],,,,3,,4,,2q5[4:2],,,,26,,,,
{16}8,,,,8,,,,56,,,,7,,,,
{16}3h[4:1]/5,,,,6,,5,,7,,,,4h[4:1]/8,,,,
{16}E1,B8,B7,E7,4x,3,2,1,E7,B6,B5,E5,7x,8z4[16:47],1,2s6[16:45],
{32}B7,C,B3,A3f,{16},,,,,,,,,,,,,,
{1},,
