&title=キティ
&artist=ツミキ/25時、ナイトコードで。 × 鏡音レン
&first=0.045
&des=Kurage
&lv_5=13
&inote_5=(145)
{4},,{16}E3,E7,,E1,,E5,,C,
6xh[8:1],,5,,6h[8:1],,3,,64,4,,8h[16:1],5,7h[16:1],,6,
2h[8:1],,4,,2h[8:1],,6,,2-4[8:1]/6,,1,,7-1[8:1],,6,,
{8}5,5h[8:1],8z4[4:1],8,3,3,2,2xv4[16:3]/6x<2[16:3],
,,,,{16}3,4,,45,,36,,7,
3h[8:1],,5,,3h[8:1],,7,,46,6,,3h[16:1],5,2h[16:1],,1,
7h[8:1],,5pp5[4:1]*qq5[4:1],,5,,{8},,,4-8[8:1],,
{16}3,3,,2,8-4[8:1],1,6,,7,7,,6,4-1[8:1]*-7[8:1],5,3,,
{4}4x-8[8:1],4x,{16}2,2,8,4,6,6,8h[16:1],,
1xb/7xb,,17,,6h[16:1],5,,2h[16:1],4<7[8:1],,3,3,,2h[16:1],,1-3[32:3],
,1-5[8:1],,1-7[32:3],,,,,4x-1[8:1]*-6[8:1],,4x,,,,,,
82,,82,,3h[16:1],4,,7h[16:1],5>2[8:1],,6,6,,7h[16:1],,8-6[32:3],
,8-4[8:1],,8-2[32:3],,,,,5x-1[8:1],,,7x,5x,8xh[8:1],,,
2b/1b,,81,,2h[16:1],4,,6h[16:1],5>2[8:1],,7,7,,8h[16:1],,1<6[8:1],
,8>3[8:1],,1-5[8:1],,,,,4x>1[8:1]*<6[8:1],,4x,,,,,,
78,,81,,7h[16:1],5,,3h[16:1],4<7[8:1],,2,2,,1h[16:1],,8>3[8:1],
,1<6[8:1],,8-4[8:1],,,,,5xw1[8:1],,,4x/6x,C,,,,
1-4[8:1],,,4,1,,,,7,5,6,5,7,5,6,5,
,2,4<8[16:5],,B3/E3,,{8},,4,4,{16}E8,E7,
E6,,E2,E3,E4,,E1,C,E5,,3,,3qq4[8:3]/6,,,,
5,,5,,E6/B6,,,7h[16:3],,,5,,46,,4,,
8-5[8:1],,,5,8,,,,2,4,3,4,2,4,3,4,
,7,5V38[16:5],,B6/E7,,{8},,5,5h[16:1],{16},26,
,,57,,4,5,,3/4-8[8:1],,2,,1,1,,,3qq2[4:1]/5pp6[4:1],
,26,,,,,,,,4h[16:1]/8h[16:1],,,7,7,5,6,
3h[8:1],,4,1h[8:1],,3-6[32:3],,8,8,,,,2,2,4,3,
6h[8:1],,5,8h[8:1],,6-3[32:3],,1,1,,,,7,7,5,6,
3h[8:1],,4,1h[8:1],,8,2,6,3h[8:1],,4,1h[8:1],,8,2,6,
3,4,2,6,5h[8:1],,8,6h[8:1],,1-5[32:3],,,3,,3,,
2h[8:1]/4,,5,4h[8:1],,8<5[32:3],5,5,8,,,,3,3,6,5,
7h[8:1],,4,5h[8:1],,1>4[32:3],4,4,1,,,,5,,6,2,
7-4[8:1]/1-5[8:1],,,8,,,,,2-5[8:1]/8-4[8:1],,,1,,,,,
7h[16:1],5,4h[16:1],2,,45,,36,3b-5b[8:1]/6b-4b[8:1],,,,E6/E4,,,,
2-6[4:2],,,,B5`E5,,,,8h[8:1],,,8,,,,,
2-6[4:2],,,,B5`E5,,,,8h[8:1],,,8,,,,,
6-2[4:2],,,,B5`E5,,,,8h[8:1],,,8,,,,,
2<7[4:1],,,,3,,,,6>3[4:1],,,,7,,,,
1-4[8:1],,,,B5`E5,,,,4-1[8:1]/6h[8:1],,,6,,,8,,
8-5[8:1],,,,B4`E5,,,,5-8[8:1]/3h[8:1],,,3,,,1,,
1xb/Cf,,,7x,Cf,,3x,,3x/Cf,,,,Cf/5xw1[8:1],,,,
5xb,,,,3-6b[8:1]/7-2b[8:1],,26,,,,,,7x-4[8:1]/5x-1[8:1],,,,
{8}5bqq5b[4:1]/7b,,5pp5b[4:1]/3,,1V37[4:1],,1,5,
4-7[8:1],1-5[8:1],4>8[16:3],1,,5-1[8:1],6-8[8:1],5,
6-2[8:1]*-4[8:1],,6<4[4:1],,4qq5b[48:11],,6q3[48:7]*<3b[48:7],,
{64}D7,A7,D8,A8,D1,A1,D2,A2,D3,,,,,,,,{8}5x-8[8:1]/4x-1[8:1],,54,,72,{16}1,1,
{8}8-3[8:1],,2-6[8:1],,5pp4[32:9],,4,3-7[8:1]*-8[8:1],
,3,,2<1-3v5[32:9]/1,,E6,E7,E8,
8-5[8:1],6,8,1-4[8:1],3,1,7-3[8:1],3-5[32:3],
7,1<3[4:1],2,6,,,2-5[8:1]/4-8[8:1],,
2b[8:1]/4b-1-3b[16:3],,4pp4b[4:1]/6,,8V62[4:1],,8,4,
5-2[8:1],8-4[8:1],5<1[16:3],8,,4-8[8:1],3-1[8:1],4,
3-7[8:1]*-5[8:1],,3>5[4:1],,5pp4b[48:11],,3p6[48:7]*>6b[48:7],,
{64}D3,A2,D2,A1,D1,A8,D8,A7,D7,,,,,,,,{8}4x/5x,3-8[8:1],7-4[8:1],3,7,1,
1/5-8[8:1],,5qq5[4:1]/3,,7/5<3[4:1],,1,,6,7,
8-2[8:1]/5-1[8:1],,5/8>6[4:1],,7,7h[4:1],
,8-4[8:1],1>4[8:1],8<5[8:1],1-5[8:1],8-4b[8:1],1,8b,
3,3,26,{16}5,5,4w8[8:1],,35,,{48}4b,B4,C,B8/B1/B7,,,,,,,,,
{8}2xbh[4:3]/6xbh[4:3],,,,,,,8x>2v4b[4:1]*<6v4b[4:1],,,,,{16}5,5,5,5,5,5,5,5,
{16}5-7[32:3],,4,5,3-1[32:3],,8,3,7-3[8:1],,7-5[32:3],,,,,,
3x,4x,2xh[8:1],,5-8[8:1],4,6-3[8:1],5,,,,,1,1,5,,
2/4-2[32:3],,5,4,6-4[32:3],7,,6,8-4[8:1],,8-2[32:3],,,,,,
5x,3x,7xh[8:1],,5-8[8:1],6,4-1[8:1],5,,,,,8,,,,
4-2[32:3]/6,,5,4,6-8[32:3],,1,6,2-6[8:1],,2-4[32:3],,,,,,
6x,5x,7xh[8:1],,4-1[8:1],5,3-6[8:1],4,,,,,8,8,4,,
7/5-7[32:3],,4,5,3-5[32:3],2,,3,1-5[8:1],,1-7[32:3],,,,,,
3x,3,4,7x,7,5,1x,1bh[16:7],C,,E6,E5,E4,,Ch[4:1],
