&title=名探偵コナン メインテーマ
&artist=大野克夫
&first=0.037
&des=Rotifera
&lv_5=13
&inote_5=(135){4},{1},{4},{16}2,
4,3,6,5,7,{8}3,
{16}8h[16:3],,,2h[16:3],,,{8}4h[16:3],{16},5>2[16:1]*<8[16:1],,,{4}5,
{16}1h[16:3],,,7h[16:3],,,{8}5h[16:3],{16},4-1[16:1]*-7[16:1],,,{4}4,
{16}8h[16:3],,,3h[16:3],,,{8}5h[16:3],{16},6h[16:3],,,{4}7s3[16:5],
{8}4,2,8,8>3[8:1]*<5[8:1],,8,{16},,,,1,
1h[8:1],,7,{8}7h[8:1],{16}5,5h[8:1],,4<7[16:1]*>1[16:1],,,{4}4,
{16}8,8h[8:1],,2,{8}2h[8:1],{16}4,4h[8:1],,5-8[16:1]*-2[16:1],,,{4}5,
{16}1,1h[8:1],,6,{8}6h[8:1],{16}4,4h[8:1],,3h[16:3],,,{8}2,6/7,
4/5,1>4[8:1]/8<5[8:1],2/7,1/8,,,1h[8:1],2h[8:1],
{4}3<7[16:3],2h[4:1],{8}8q5[16:3],3,{4}4,
8>4[16:3],6q3[16:3],{8}8,8h[8:1],,,2-5[8:1],
5-2[8:1],2<5[16:3],8,{4}8h[4:1],{8}4q8[8:1],3,
{4}2>5[8:1],8q5[16:3],{8}7,7h[8:1],{16},,6,4,
{8}7<4[8:1],1,{4}7,{8}2p6[16:3],5,{4}2,
{8}4q8[4:1],7,{4}8q4[4:1],4,{32}1>4[8:1],,,,,5,6,7,
{2}8qq4[2:1],{8}3h[16:1],3h[16:1],,,7/3,
{16}4,5,{8}3,{16}3,4,{8}2,{16}1,8,{8}2,{16}7,3,
{4}6>2[16:3],7h[4:1],{8}1p4[16:3],6,{4}5,
1<5[16:3],3p6[4:1],{8}1,1h[8:1],,,7-4[8:1],
4-7[8:1],7>4[16:3],1,{4}1h[4:1],{8}5p1[8:1],6,
{4}7<4[8:1],1p4[16:3],{8}2,2h[8:1],{16},,3,5,
{8}2>6[16:3],7/1,{4}2,{8}8p3[16:3],7/5,{4}8,
{8}5p1[4:1],2,{4}1p5[4:1],5,{32}8<5[8:1],,,,,4,3,2,
{2}1pp5[2:1],{8}6h[16:1],6h[16:1],,8,
7/1,4/3,2/8,5/6,8/1,4/5,{16}2>5[8:1],8,{8}2,
2<7[8:1],6,{4}2,{8}5,3/7-4[8:1],8/4-7[8:1],7>4[16:3],
1,1pp6[8:3],,5,6,7,{4}8,
{8}5p8[16:3],4,3,2q7[16:3],,7,6,5pp2[8:3],
,1,2,3,4,1,8>4[8:1],7,
{4}6q4[4:1],{8}5,5h[8:3],{16},,,,,,4/6,7/3,
{4}8/2q7[4:1],2/7p2[16:3],{8}1,8,{48},,,,,,8qq3[2:1],7/1,2/6,3/5,{24}4,
,,,,,,,,,{8}4,3,2,1,5/2,
6/5,4/7,3/4,8/1,{24},,,6,5,4,{4}3,
3<7[16:3],2h[4:1],{8}8q5[16:3],3,{4}4,
8>4[16:3],6q3[16:3],{8}8,8h[8:1],,,8/2-5[8:1],
4/6-1[8:1],2/8,6,3-8[8:1],1/7-4[8:1],5/3,7,
1,{16}2,4,3,6,5,7,2,8,4,6<4[16:19],1,7,3,5,
{1}1h[1:1],
{8},,,2>8[8:9],{16},,,6,,,{8}6h[8:7],
,,,,,,,,3/4,
7/8,6/5,{16}2,1,3,8,5,6h[16:3],{8}8,8,
{16}1h[16:3],4,,3h[16:3],{8}6,{16}5h[16:3],8<5[16:1],,8>3[16:1],,,{4}8,
{16}8h[16:3],5,,6h[16:3],{8}3,{16}4h[16:3],1-4[16:1],,1-6[16:1],,,{4}1,
{16}1h[16:3],5,,4h[16:3],{8}7,{16}6h[16:3],8<5[16:1],,8>3[16:1],,,{4}8z4[16:5],
{8}4,3,2,{16}1,1,4,2,7,5,8,2,6,4,
{8}8<1[8:3],{16},,,,,,,,,,,,6/3,7/2,
{8}8/1,5/6,3/2,7/6,4/3,7/2,4/5,3/6,
{16}8,8,8,8,{48}7b/1b,6b/2b,5b/3b,4b,
E
